Carole King - Wrap Around Joy (1974) [2007, Japanese Paper Sleeve]

Download Now

Carole King - Wrap Around Joy (1974) [2007, Japanese Paper Sleeve]

Carole King - Wrap Around Joy (1974) [2007, Japanese Paper Sleeve]
Pop/Rock, Singer/Songwriter | EAC Rip | FLAC, Tracks+CUE + LOG + Covers-600dpi (JPEG) | 45:21 Min | 305,93 Mb
Label: Epic (Japan) | Released: 2007, October, 31

"
Wrap Around Joy is a 1974 album by American singer-songwriter Carole King. The album hit #1 on the Billboard albums chart in late 1974 and spun off successful singles with "Jazzman" (#2 Pop) and "Nightingale" (#9 Pop, #1 Adult Contemporary). The album was certified Gold by the RIAA.
"

Art Direction [Graphic] - Chuck Beeson
Artwork - John Casado
Backing Vocals - Abigale Haness, Carole King, Louise Goffin (tracks: 1), Sherry Goffin (tracks: 1)
Bass - Charles Larkey
Choir - David Campbell String Section, The (tracks: 6), Eddie Kendricks Singers, The (tracks: 6)
Drums - Andy Newmark
Engineer - Norm Kinney
Engineer [Assistant] - Milt Calice
Guitar - Danny Kortchmar, Dean Parks
Horns - Chuck Findley, Dick "Slyde" Hyde*, Ernie Watts, Fred Jackson, Jr., Gene Goe, George Bohanon, Mike Altschul
Keyboards - Carole King
Photography By - Richard Fegley
Producer - Lou Adler
Saxophone - Jim Horn (tracks: 7), Tom Scott (tracks: 3)
Soloist - Jim Horn (tracks: 7), Tom Scott (tracks: 3)
Vocals - Carole King
Written-By - Carole King, Dave Palmer



Tracklist:

01. Nightingale (03:38)
(Carole King / David Palmer)
02. Change In Mind, Change Of Heart (04:41)
(Carole King / David Palmer)
03. Jazzman (03:46)
(Carole King / David Palmer)
04. You Go Your Way, I'll Go Mine (03:34)
(Carole King / David Palmer)
05. You're Something New (02:55)
(Carole King / David Palmer)
06. We Are All In This Together (04:03)
(Carole King / David Palmer)
07. Wrap Around Joy (02:59)
(Carole King / David Palmer)
08. You Gentle Me (03:50)
(Carole King / David Palmer)
09. My Lovin' Eyes (03:10)
(Carole King / David Palmer)
10. Sweet Adonis (03:23)
(Carole King / David Palmer)
11. A Night This Side Of Dying (02:59)
(Carole King / David Palmer)
12. The Best Is Yet To Come (03:36)
(Carole King / David Palmer)
Bonus Track:
13. Oh No, Not My Baby (02:47)
(Carole King / Gerry Goffin)

Exact Audio Copy V1.0 beta 3 from 29. August 2011

EAC extraction logfile from 30. April 2015, 2:01

Carole King / Wrap Around Joy

Used drive : HL-DT-STDVDRAM GH24NS90 Adapter: 1 ID: 0

Read mode : Secure
Utilize accurate stream : Yes
Defeat audio cache : No
Make use of C2 pointers : Yes

Read offset correction : 6
Overread into Lead-In and Lead-Out : No
Fill up missing offset samples with silence : Yes
Delete leading and trailing silent blocks : No
Null samples used in CRC calculations : Yes
Used interface : Native Win32 interface for Win NT & 2000
Gap handling : Appended to previous track

Used output format : User Defined Encoder
Selected bitrate : 1024 kBit/s
Quality : High
Add ID3 tag : No
Command line compressor : C:\Program Files (x86)\FLAC\metaflac.exe
Additional command line options : -8

TOC of the extracted CD

Track | Start | Length | Start sector | End sector
---------------------------------------------------------
1 | 0:00.00 | 3:38.13 | 0 | 16362
2 | 3:38.13 | 4:41.14 | 16363 | 37451
3 | 8:19.27 | 3:45.40 | 37452 | 54366
4 | 12:04.67 | 3:34.02 | 54367 | 70418
5 | 15:38.69 | 2:54.72 | 70419 | 83540
6 | 18:33.66 | 4:03.34 | 83541 | 101799
7 | 22:37.25 | 2:59.23 | 101800 | 115247
8 | 25:36.48 | 3:49.59 | 115248 | 132481
9 | 29:26.32 | 3:09.58 | 132482 | 146714
10 | 32:36.15 | 3:23.07 | 146715 | 161946
11 | 35:59.22 | 2:58.43 | 161947 | 175339
12 | 38:57.65 | 3:36.32 | 175340 | 191571
13 | 42:34.22 | 2:46.57 | 191572 | 204078

Track 1

Filename C:\Exact Audio Copy\Carole King\Wrap Around Joy\01 Nightingale.wav

Pre-gap length 0:00:02.00

Peak level 96.6 %
Extraction speed 3.5 X
Track quality 100.0 %
Test CRC 46636B6B
Copy CRC 46636B6B
Accurately ripped (confidence 2) [2622137D] (AR v1)
Copy OK

Track 2

Filename C:\Exact Audio Copy\Carole King\Wrap Around Joy\02 Change In Mind, Change Of Heart.wav

Pre-gap length 0:00:00.68

Peak level 96.9 %
Extraction speed 4.2 X
Track quality 100.0 %
Test CRC 20D9C55A
Copy CRC 20D9C55A
Accurately ripped (confidence 2) [77358F64] (AR v1)
Copy OK

Track 3

Filename C:\Exact Audio Copy\Carole King\Wrap Around Joy\03 Jazzman.wav

Peak level 100.0 %
Extraction speed 4.4 X
Track quality 100.0 %
Test CRC E64472A1
Copy CRC E64472A1
Accurately ripped (confidence 2) [24167A79] (AR v1)
Copy OK

Track 4

Filename C:\Exact Audio Copy\Carole King\Wrap Around Joy\04 You Go Your Way, I'll Go Mine.wav

Peak level 93.7 %
Extraction speed 4.7 X
Track quality 100.0 %
Test CRC 2CA5326B
Copy CRC 2CA5326B
Accurately ripped (confidence 2) [65634F4F] (AR v1)
Copy OK

Track 5

Filename C:\Exact Audio Copy\Carole King\Wrap Around Joy\05 You're Something New.wav

Pre-gap length 0:00:00.50

Peak level 99.9 %
Extraction speed 4.9 X
Track quality 99.8 %
Test CRC ECCD22F5
Copy CRC ECCD22F5
Accurately ripped (confidence 2) 4C94550 (AR v1)
Copy OK

Track 6

Filename C:\Exact Audio Copy\Carole King\Wrap Around Joy\06 We Are All In This Together.wav

Pre-gap length 0:00:01.04

Peak level 96.6 %
Extraction speed 5.2 X
Track quality 99.9 %
Test CRC 294968AF
Copy CRC 294968AF
Accurately ripped (confidence 2) [79498AE6] (AR v1)
Copy OK

Track 7

Filename C:\Exact Audio Copy\Carole King\Wrap Around Joy\07 Wrap Around Joy.wav

Pre-gap length 0:00:00.56

Peak level 100.0 %
Extraction speed 5.5 X
Track quality 100.0 %
Test CRC 61506AA3
Copy CRC 61506AA3
Accurately ripped (confidence 2) [468CDFF0] (AR v1)
Copy OK

Track 8

Filename C:\Exact Audio Copy\Carole King\Wrap Around Joy\08 You Gentle Me.wav

Pre-gap length 0:00:01.01

Peak level 99.9 %
Extraction speed 5.7 X
Track quality 99.9 %
Test CRC BFB4F6D1
Copy CRC BFB4F6D1
Accurately ripped (confidence 2) [13DA03F4] (AR v1)
Copy OK

Track 9

Filename C:\Exact Audio Copy\Carole King\Wrap Around Joy\09 My Lovin' Eyes.wav

Peak level 100.0 %
Extraction speed 5.9 X
Track quality 100.0 %
Test CRC 59CB515B
Copy CRC 59CB515B
Accurately ripped (confidence 2) [058EB08D] (AR v1)
Copy OK

Track 10

Filename C:\Exact Audio Copy\Carole King\Wrap Around Joy\10 Sweet Adonis.wav

Peak level 100.0 %
Extraction speed 6.4 X
Track quality 100.0 %
Test CRC F0CA017C
Copy CRC F0CA017C
Accurately ripped (confidence 2) [AF13F46C] (AR v1)
Copy OK

Track 11

Filename C:\Exact Audio Copy\Carole King\Wrap Around Joy\11 A Night This Side Of Dying.wav

Peak level 93.5 %
Extraction speed 6.6 X
Track quality 100.0 %
Test CRC 17E48E87
Copy CRC 17E48E87
Accurately ripped (confidence 2) [53881CD0] (AR v1)
Copy OK

Track 12

Filename C:\Exact Audio Copy\Carole King\Wrap Around Joy\12 The Best Is Yet To Come.wav

Peak level 100.0 %
Extraction speed 6.8 X
Track quality 100.0 %
Test CRC 73C14E87
Copy CRC 73C14E87
Accurately ripped (confidence 2) [57D9BC4B] (AR v1)
Copy OK

Track 13

Filename C:\Exact Audio Copy\Carole King\Wrap Around Joy\13 Oh No Not My Baby (Bonus Track).wav

Pre-gap length 0:00:04.57

Peak level 80.3 %
Extraction speed 7.0 X
Track quality 100.0 %
Test CRC CA7BDA82
Copy CRC CA7BDA82
Accurately ripped (confidence 2) [00769CA8] (AR v1)
Copy OK

All tracks accurately ripped

No errors occurred

End of status report

==== Log checksum 7091ACA457B9953C0D9613640EEB0811E005898EC00EFFBB8D0ABD1948539BBC ====

foobar2000 1.3.7 / Dynamic Range Meter 1.1.1
log date: 2015-06-10 21:51:10

--------------------------------------------------------------------------------
Analyzed: Carole King / Wrap Around Joy
--------------------------------------------------------------------------------

DR Peak RMS Duration Track
--------------------------------------------------------------------------------
DR12 -0.29 dB -13.79 dB 3:38 ?-01 Nightingale
DR12 -0.27 dB -15.30 dB 4:41 ?-02 Change In Mind, Change Of Heart
DR11 0.00 dB -13.23 dB 3:46 ?-03 Jazzman
DR13 -0.56 dB -15.48 dB 3:34 ?-04 You Go Your Way, I'll Go Mine
DR12 0.00 dB -15.23 dB 2:55 ?-05 You're Something New
DR13 -0.30 dB -16.16 dB 4:03 ?-06 We Are All In This Together
DR11 0.00 dB -13.32 dB 2:59 ?-07 Wrap Around Joy
DR12 0.00 dB -14.60 dB 3:50 ?-08 You Gentle Me
DR11 0.00 dB -13.82 dB 3:10 ?-09 My Lovin' Eyes
DR12 0.00 dB -14.97 dB 3:23 ?-10 Sweet Adonis
DR14 -0.58 dB -16.84 dB 2:59 ?-11 A Night This Side Of Dying
DR12 0.00 dB -14.65 dB 3:36 ?-12 The Best Is Yet To Come
DR12 -1.90 dB -17.15 dB 2:47 ?-13 Oh No Not My Baby (Bonus Track)
--------------------------------------------------------------------------------

Number of tracks: 13
Official DR value: DR12

Samplerate: 44100 Hz
Channels: 2
Bits per sample: 16
Bitrate: 751 kbps
Codec: FLAC

password: BlondStyle
Download link:



Links are Interchangeable - No Password - Single Extraction
Direct Download

Tags: Carole, Japanese, Sleeve

Carole King - Wrap Around Joy (1974) [2007, Japanese Paper Sleeve] Download via Hotfile Rapidshare Fileserve Megaupload & FileSonic, Carole King - Wrap Around Joy (1974) [2007, Japanese Paper Sleeve] free torrent downloads included crack, serial, keygen.Carole King - Wrap Around Joy (1974) [2007, Japanese Paper Sleeve] Fast Download via Rapidshare Hotfile Fileserve Filesonic Megaupload, Carole King - Wrap Around Joy (1974) [2007, Japanese Paper Sleeve] Torrents and Emule Download or anything related.
Leave a Comment
Your Name:
E-Mail:
Add Comments:

Enter Code: