Jane - 3 Studio Albums (1972-1976)

Download Now

Jane - 3 Studio Albums (1972-1976)

Jane - 3 Studio Albums (1972-1976)
EAC Rip | FLAC (tracks+.cue+log) - 692 MB | MP3 CBR 320 kbps (LAME 3.93) - 283 MB | Covers - 77 MB
Genre: Progressive Rock | RAR 3% Rec. | Label: Brain, SPV

"Playing a melodious synthesis of symphonic hard rock that has occasionally been compared to Pink Floyd, Hanover Krautrockers Jane can trace their origins back to the late sixties psychedelic band Justice Of Peace. Releasing a single Save Me/War, the band featured future Jane members Peter Panka on vocals, Klaus Hess on bass and Werner Nadolny on saxophone. By late 1970 Justice Of Peace had dissolved and regrouped as Jane with Panka on vocals and drums, Hess switching to guitar and Nadolny assuming keyboards. Charly Maucher joined on bass and power vocalist Berndt Pulst completed the band in April 1971 and their first LP "Together" was released in the spring of 1972..."

Jane - 3 Studio Albums (1972-1976)

Jane - Together (1972) [Reissue 1990] (Repost)
EAC Rip | FLAC (tracks+.cue+log) - 260 MB | MP3 CBR 320 kbps (LAME 3.93) - 103 MB | Covers - 15 MB
Genre: Progressive Rock | RAR 3% Rec. | Label: Brain (843 075-2)

Tracklist:
01. Daytime
02. Wind
03. Try to Find
04. Spain
05. Together
06. Hangman

Total time: 43:49

Exact Audio Copy V1.0 beta 3 from 29. August 2011

EAC extraction logfile from 1. June 2015, 19:52

Jane / Together

Used drive : _NEC DVD_RW ND-3540A Adapter: 1 ID: 0

Read mode : Secure
Utilize accurate stream : Yes
Defeat audio cache : Yes
Make use of C2 pointers : No

Read offset correction

: 48
Overread into Lead-In and Lead-Out : No
Fill up missing offset samples with silence : Yes
Delete leading and trailing silent blocks : No
Null samples used in CRC calculations : Yes
Used interface
: Native Win32 interface for Win NT & 2000
Gap handling
: Appended to previous track

Used output format : User Defined Encoder
Selected bitrate : 1024 kBit/s
Quality : High
Add ID3 tag : Yes
Command line compressor : C:\Program Files (x86)\Exact Audio Copy\FLAC\FLAC.EXE
Additional command line options : -6 -V -T "ARTIST=%artist%" -T "TITLE=%title%" -T "ALBUM=%albumtitle%" -T "DATE=%year%" -T "TRACKNUMBER=%tracknr%" -T "GENRE=%genre%" -T "COMMENT=%comment%" %hascover%--picture="%coverfile%"%hascover% %source% -o %dest%

TOC of the extracted CD Track | Start | Length | Start sector | End sector
1 | 0:00.33 | 8:10.02 | 33 | 36784 2 | 8:10.35 | 4:57.35 | 36785 | 59094 3 | 13:07.70 | 5:27.45 | 59095 | 83664 4 | 18:35.40 | 11:57.40 | 83665 | 137479 5 | 30:33.05 | 3:46.23 | 137480 | 154452 6 | 34:19.28 | 9:30.17 | 154453 | 197219

Track 1 Filename F:\Music\olaf_alien\Jane - Together (1972, 1990 - Brain-Metronome Musik)\01 - Daytime.wav Pre-gap length 0:00:02.33 Peak level 83.8 %
Extraction speed 1.9 X
Track quality 99.9 %
Test CRC DEFEAAFB
Copy CRC DEFEAAFB
Accurately ripped (confidence 27) [C9DF1DF9] (AR v2)
Copy OK

Track 2 Filename F:\Music\olaf_alien\Jane - Together (1972, 1990 - Brain-Metronome Musik)\02 - Wind.wav Pre-gap length 0:00:03.00 Peak level 85.5 %
Extraction speed 1.6 X
Track quality 99.9 %
Test CRC A8581E99
Copy CRC A8581E99
Accurately ripped (confidence 27) [23C73B86] (AR v2)
Copy OK

Track 3 Filename F:\Music\olaf_alien\Jane - Together (1972, 1990 - Brain-Metronome Musik)\03 - Try To Find.wav Pre-gap length 0:00:03.00 Peak level 81.2 %
Extraction speed 2.2 X
Track quality 100.0 %
Test CRC 453168EF
Copy CRC 453168EF
Accurately ripped (confidence 27) [349510F9] (AR v2)
Copy OK

Track 4 Filename F:\Music\olaf_alien\Jane - Together (1972, 1990 - Brain-Metronome Musik)\04 - Spain.wav Pre-gap length 0:00:03.00 Peak level 84.5 %
Extraction speed 2.3 X
Track quality 100.0 %
Test CRC 6E0C03CE
Copy CRC 6E0C03CE
Accurately ripped (confidence 27) [40867E2F] (AR v2)
Copy OK

Track 5 Filename F:\Music\olaf_alien\Jane - Together (1972, 1990 - Brain-Metronome Musik)\05 - Together.wav Pre-gap length 0:00:03.00 Peak level 77.5 %
Extraction speed 2.1 X
Track quality 100.0 %
Test CRC 89F3F01F
Copy CRC 89F3F01F
Accurately ripped (confidence 27) [E849AC85] (AR v2)
Copy OK

Track 6 Filename F:\Music\olaf_alien\Jane - Together (1972, 1990 - Brain-Metronome Musik)\06 - Hangman.wav Pre-gap length 0:00:03.00 Peak level 80.1 %
Extraction speed 2.3 X
Track quality 100.0 %
Test CRC 7AA44862
Copy CRC 7AA44862
Accurately ripped (confidence 27) [06ABE354] (AR v2)
Copy OK

All tracks accurately ripped

No errors occurred

End of status report

==== Log checksum 45E2834F995366352230D967FD572F6F87F90AE1B9D576C9FFF3651E3BEF609A ====

[CUETools log; Date: 08.06.2015 23:50:24; Version: 2.1.4]
Pregap length 00:00:33.
[CTDB TOCID: yTleFFcvE5_576Fzc10k2sYgBlM-] found.
Track | CTDB Status
1 | (19/20) Accurately ripped
2 | (19/20) Accurately ripped
3 | (20/20) Accurately ripped
4 | (18/20) Accurately ripped
5 | (20/20) Accurately ripped
6 | (20/20) Accurately ripped
[AccurateRip ID: 000a343b-0036a12e-4d0a4506] found.
Track [ CRC | V2 ] Status
01 [3f380f27|c9df1df9] (03+30/81) Accurately ripped
02 [d8094ba7|23c73b86] (03+30/80) Accurately ripped
03 [2cd11d35|349510f9] (03+30/80) Accurately ripped
04 41939c2|40867e2f (03+30/80) Accurately ripped
05 [d4ce53a2|e849ac85] (03+30/81) Accurately ripped
06 [48c444b1|06abe354] (03+30/81) Accurately ripped
Offsetted by 664:
01 [fa91796f] (03/81) Accurately ripped
02 [f6a858d7] (02/80) Accurately ripped
03 [e00c375d] (02/80) Accurately ripped
04 [e31d529a] (03/80) Accurately ripped
05 [4a8fce5a] (03/81) Accurately ripped
06 [d59eb119] (03/81) Accurately ripped
Offsetted by 1328:
01 5eae3b7 (19/81) Accurately ripped
02 [15476607] (19/80) Accurately ripped
03 [93475185] (19/80) Accurately ripped
04 [12216b72] (19/80) Accurately ripped
05 [c0514912] (19/81) Accurately ripped
06 [62791d81] (19/81) Accurately ripped

Track Peak [ CRC32 ] [W/O NULL] [ LOG ]
-- 85,5 [9D01531A] [995ECE21]
01 83,8 [DEFEAAFB] [D7C5F43E] CRC32
02 85,5 [A8581E99] [82428989] CRC32
03 81,2 [453168EF] [8BAC50CA] CRC32
04 84,5 [6E0C03CE] [DA230421] CRC32
05 77,5 [89F3F01F] [14F933A7] CRC32
06 80,1 [7AA44862] [58D77653] CRC32

Jane - 3 Studio Albums (1972-1976)

Jane - Jane III (1974) [Reissue 2004]
EAC Rip | FLAC (tracks+.cue+log) - 258 MB | MP3 CBR 320 kbps (LAME 3.93) - 102 MB | Covers - 56 MB
Genre: Progressive Rock | RAR 3% Rec. | Label: SPV (SPV 49452 CD)

Tracklist:
01. Comin' Again
02. Mother, You Don't Know
03. I Need You
04. Way To Paradise
05. Early In the Morning
06. Jane-session
07. Rock'n'Roll Star
08. King Of Thule
09. Baby, What You're Doin'

Total time: 42:06

Exact Audio Copy V1.0 beta 3 from 29. August 2011

EAC extraction logfile from 3. September 2012, 13:01

Jane / Jane III

Used drive : _NEC DVD_RW ND-3540A Adapter: 1 ID: 1

Read mode : Secure
Utilize accurate stream : Yes
Defeat audio cache : Yes
Make use of C2 pointers : No

Read offset correction

: 48
Overread into Lead-In and Lead-Out : No
Fill up missing offset samples with silence : Yes
Delete leading and trailing silent blocks : No
Null samples used in CRC calculations : Yes
Used interface
: Native Win32 interface for Win NT & 2000
Gap handling
: Appended to previous track

Used output format : User Defined Encoder
Selected bitrate : 1024 kBit/s
Quality : High
Add ID3 tag : Yes
Command line compressor : C:\Program Files (x86)\Exact Audio Copy\FLAC\FLAC.EXE
Additional command line options : -6 -V -T "ARTIST=%artist%" -T "TITLE=%title%" -T "ALBUM=%albumtitle%" -T "DATE=%year%" -T "TRACKNUMBER=%tracknr%" -T "GENRE=%genre%" -T "COMMENT=%comment%" %hascover%--picture="%coverfile%"%hascover% %source% -o %dest%

TOC of the extracted CD Track | Start | Length | Start sector | End sector
1 | 0:00.00 | 9:43.49 | 0 | 43773 2 | 9:43.49 | 5:53.70 | 43774 | 70318 3 | 15:37.44 | 4:54.68 | 70319 | 92436 4 | 20:32.37 | 3:29.09 | 92437 | 108120 5 | 24:01.46 | 5:26.04 | 108121 | 132574 6 | 29:27.50 | 4:23.43 | 132575 | 152342 7 | 33:51.18 | 4:50.37 | 152343 | 174129 8 | 38:41.55 | 0:40.35 | 174130 | 177164 9 | 39:22.15 | 3:08.25 | 177165 | 191289

Track 1 Filename D:\Music\olaf_alien\Jane - Jane III (1974, Brain - 2004, Revisited)\01 - Comin' Again.wav Pre-gap length 0:00:02.00 Peak level 96.9 %
Extraction speed 1.1 X
Track quality 99.9 %
Test CRC B76230B5
Copy CRC B76230B5
Accurately ripped (confidence 5) [2007DE60] (AR v1)
Copy OK

Track 2 Filename D:\Music\olaf_alien\Jane - Jane III (1974, Brain - 2004, Revisited)\02 - Mother, You Don't Know Me.wav Pre-gap length 0:00:02.25 Peak level 96.9 %
Extraction speed 4.3 X
Track quality 100.0 %
Test CRC 86882907
Copy CRC 86882907
Accurately ripped (confidence 4) [E4310A2B] (AR v1)
Copy OK

Track 3 Filename D:\Music\olaf_alien\Jane - Jane III (1974, Brain - 2004, Revisited)\03 - I Need You.wav Pre-gap length 0:00:02.25 Peak level 96.9 %
Extraction speed 4.3 X
Track quality 100.0 %
Test CRC 01E7ADE6
Copy CRC 01E7ADE6
Accurately ripped (confidence 5) [35250336] (AR v1)
Copy OK

Track 4 Filename D:\Music\olaf_alien\Jane - Jane III (1974, Brain - 2004, Revisited)\04 - Way To Paradise.wav Pre-gap length 0:00:02.25 Peak level 92.0 %
Extraction speed 2.5 X
Track quality 99.9 %
Test CRC 7EF4E9D3
Copy CRC 7EF4E9D3
Accurately ripped (confidence 4) [8338DCC9] (AR v1)
Copy OK

Track 5 Filename D:\Music\olaf_alien\Jane - Jane III (1974, Brain - 2004, Revisited)\05 - Early In The Morning.wav Pre-gap length 0:00:02.25 Peak level 96.9 %
Extraction speed 4.3 X
Track quality 100.0 %
Test CRC C33F5F76
Copy CRC C33F5F76
Accurately ripped (confidence 4) [DE91A8AF] (AR v1)
Copy OK

Track 6 Filename D:\Music\olaf_alien\Jane - Jane III (1974, Brain - 2004, Revisited)\06 - Jane-Session.wav Pre-gap length 0:00:02.25 Peak level 96.9 %
Extraction speed 2.9 X
Track quality 99.9 %
Test CRC 28ADD3C1
Copy CRC 28ADD3C1
Accurately ripped (confidence 5) [D12CDC1C] (AR v1)
Copy OK

Track 7 Filename D:\Music\olaf_alien\Jane - Jane III (1974, Brain - 2004, Revisited)\07 - Rock 'n' Roll Star.wav Pre-gap length 0:00:02.25 Peak level 92.1 %
Extraction speed 3.1 X
Track quality 99.9 %
Test CRC 76BC3E7B
Copy CRC 76BC3E7B
Accurately ripped (confidence 5) [741C9D90] (AR v1)
Copy OK

Track 8 Filename D:\Music\olaf_alien\Jane - Jane III (1974, Brain - 2004, Revisited)\08 - King of Thule.wav Pre-gap length 0:00:02.25 Peak level 47.8 %
Extraction speed 0.9 X
Track quality 99.7 %
Test CRC 250C52F0
Copy CRC 250C52F0
Accurately ripped (confidence 5) [1A957357] (AR v1)
Copy OK

Track 9 Filename D:\Music\olaf_alien\Jane - Jane III (1974, Brain - 2004, Revisited)\09 - Baby, What You're Doin'.wav Pre-gap length 0:00:02.25 Peak level 96.8 %
Extraction speed 4.0 X
Track quality 100.0 %
Test CRC F85C3AA2
Copy CRC F85C3AA2
Accurately ripped (confidence 5) [70BB8695] (AR v1)
Copy OK

All tracks accurately ripped

No errors occurred

End of status report

==== Log checksum A0BB6452013F01A1F1729BED1937B33A1923198531B0CF447531CBD18EED6D07 ====

[CUETools log; Date: 08.06.2015 23:31:27; Version: 2.1.4]
[CTDB TOCID: 8u5gjGlg1l411Yi58d97NZC0RdI-] found.
Track | CTDB Status
1 | (13/13) Accurately ripped
2 | (13/13) Accurately ripped
3 | (13/13) Accurately ripped
4 | (13/13) Accurately ripped
5 | (13/13) Accurately ripped
6 | (13/13) Accurately ripped
7 | (13/13) Accurately ripped
8 | (13/13) Accurately ripped
9 | (13/13) Accurately ripped
[AccurateRip ID: 00116d8a-0079a13f-7709f609] found.
Track [ CRC | V2 ] Status
01 [2007de60|c5dea2e5] (08+14/22) Accurately ripped
02 [e4310a2b|b618bc4c] (07+15/22) Accurately ripped
03 [35250336|ba17fdef] (08+15/23) Accurately ripped
04 [8338dcc9|c8680b90] (07+15/22) Accurately ripped
05 [de91a8af|0a036932] (07+14/21) Accurately ripped
06 [d12cdc1c|43ea6359] (08+15/23) Accurately ripped
07 [741c9d90|0952aa88] (08+15/23) Accurately ripped
08 [1a957357|a5dbe83b] (08+15/23) Accurately ripped
09 [70bb8695|51829510] (08+16/24) Accurately ripped

Track Peak [ CRC32 ] [W/O NULL] [ LOG ]
-- 96,9 [96DD1BF5] [C40D0C9B]
01 96,9 76230B5 [D77AD599] CRC32
02 96,9 [86882907] [34944167] CRC32
03 96,9 [01E7ADE6] [72613EB2] CRC32
04 91,9 [7EF4E9D3] 1DFBE53 CRC32
05 96,9 [C33F5F76] [D5DE4E15] CRC32
06 96,9 [28ADD3C1] [757CB621] CRC32
07 92,1 [76BC3E7B] [71A7C9AA] CRC32
08 47,8 [250C52F0] [10D22222] CRC32
09 96,8 [F85C3AA2] [596D3BC3] CRC32

Jane - 3 Studio Albums (1972-1976)

Jane - Fire, Water, Earth & Air (1976) [Reissue 1990] (Repost)
EAC Rip | FLAC (tracks+.cue+log) - 174 MB | MP3 CBR 320 kbps (LAME 3.93) - 78 MB | Covers - 6 MB
Genre: Progressive Rock | RAR 3% Rec. | Label: Brain (831 748-2)

Tracklist:
01. Fire (You Give Me Some Sweet Lovin) / Water (Keep On Rollin')
02. Earth (Angel) (5:26)
03. Air (Superman) / Air (Let The Sunshine In) / The End

Total time: 33:20

Exact Audio Copy V1.0 beta 3 from 29. August 2011

EAC extraction logfile from 1. June 2015, 19:07

Jane / Fire, Water, Earth & Air

Used drive : _NEC DVD_RW ND-3540A Adapter: 1 ID: 0

Read mode : Secure
Utilize accurate stream : Yes
Defeat audio cache : Yes
Make use of C2 pointers : No

Read offset correction

: 48
Overread into Lead-In and Lead-Out : No
Fill up missing offset samples with silence : Yes
Delete leading and trailing silent blocks : No
Null samples used in CRC calculations : Yes
Used interface
: Native Win32 interface for Win NT & 2000
Gap handling
: Appended to previous track

Used output format : User Defined Encoder
Selected bitrate : 1024 kBit/s
Quality : High
Add ID3 tag : Yes
Command line compressor : C:\Program Files (x86)\Exact Audio Copy\FLAC\FLAC.EXE
Additional command line options : -6 -V -T "ARTIST=%artist%" -T "TITLE=%title%" -T "ALBUM=%albumtitle%" -T "DATE=%year%" -T "TRACKNUMBER=%tracknr%" -T "GENRE=%genre%" -T "COMMENT=%comment%" %hascover%--picture="%coverfile%"%hascover% %source% -o %dest%

TOC of the extracted CD Track | Start | Length | Start sector | End sector
1 | 0:00.33 | 17:00.15 | 33 | 76547 2 | 17:00.48 | 5:26.12 | 76548 | 101009 3 | 22:26.60 | 10:53.48 | 101010 | 150032

Track 1 Filename F:\Music\olaf_alien\Jane - Fire, Water, Earth & Air (1976, 1990 - Brain-Metronome Musik)\01 - Fire (You Give Me Some Sweet Lovin) - Water (Keep On Rollin').wav Pre-gap length 0:00:02.33 Peak level 83.3 %
Extraction speed 2.1 X
Track quality 99.9 %
Test CRC 191C6C43
Copy CRC 191C6C43
Accurately ripped (confidence 19) [8AC46C2D] (AR v2)
Copy OK

Track 2 Filename F:\Music\olaf_alien\Jane - Fire, Water, Earth & Air (1976, 1990 - Brain-Metronome Musik)\02 - Earth (Angel).wav Pre-gap length 0:00:05.28 Peak level 69.7 %
Extraction speed 2.2 X
Track quality 100.0 %
Test CRC AA39DB19
Copy CRC AA39DB19
Accurately ripped (confidence 19) [F8272378] (AR v2)
Copy OK

Track 3 Filename F:\Music\olaf_alien\Jane - Fire, Water, Earth & Air (1976, 1990 - Brain-Metronome Musik)\03 - Air (Superman) - Air (Let The Sunshine In) - The End.wav Pre-gap length 0:00:05.02 Peak level 78.4 %
Extraction speed 2.3 X
Track quality 100.0 %
Test CRC 8DB3D622
Copy CRC 8DB3D622
Accurately ripped (confidence 19) [A82EAAA2] (AR v2)
Copy OK

All tracks accurately ripped

No errors occurred

End of status report

==== Log checksum 48C62CBBE4F4299C75396A14E5D7BF44A422CD3F3509F003EB58FE8F4A88B439 ====

[CUETools log; Date: 08.06.2015 23:45:51; Version: 2.1.4]
Pregap length 00:00:33.
[CTDB TOCID: r2DK5xsoO5v8UWY6pHmfZ9wMPcY-] found.
Track | CTDB Status
1 | (9/9) Accurately ripped
2 | (9/9) Accurately ripped
3 | (9/9) Accurately ripped
[AccurateRip ID: 0004ffc8-00101e23-1707d003] found.
Track [ CRC | V2 ] Status
01 [2e8c148a|8ac46c2d] (07+22/71) Accurately ripped
02 [3b379492|f8272378] (07+22/70) Accurately ripped
03 [f6be7c4e|a82eaaa2] (07+22/70) Accurately ripped
Offsetted by 664:
01 [129ab752] (04/71) Accurately ripped
02 [89948df2] (04/70) Accurately ripped
03 [adf61656] (04/70) Accurately ripped
Offsetted by 1339:
01 [859ecc9b] (19/71) Accurately ripped
02 [e344085e] (18/70) Accurately ripped
03 [923ce007] (18/70) Accurately ripped

Track Peak [ CRC32 ] [W/O NULL] [ LOG ]
-- 83,3 [2B7B98D8] 3995AE5
01 83,3 [191C6C43] [E73EBF33] CRC32
02 69,7 [AA39DB19] [DDFB572B] CRC32
03 78,4 [8DB3D622] [01EE06F5] CRC32

Thanks to olaf_alien
Download Links:
(Premium Recommended)


All above links are interchangable. No password
Direct Download

Tags: Studio, Albums

Jane - 3 Studio Albums (1972-1976) Download via Hotfile Rapidshare Fileserve Megaupload & FileSonic, Jane - 3 Studio Albums (1972-1976) free torrent downloads included crack, serial, keygen.Jane - 3 Studio Albums (1972-1976) Fast Download via Rapidshare Hotfile Fileserve Filesonic Megaupload, Jane - 3 Studio Albums (1972-1976) Torrents and Emule Download or anything related.
Leave a Comment
Your Name:
E-Mail:
Add Comments:

Enter Code: