Something Completely Different - 2 Albums (2003-2006)

Download Now

Something Completely Different - 2 Albums (2003-2006)

Something Completely Different - 2 Albums (2003-2006)
EAC Rip | FLAC (image+.cue+log) - 875 MB | MP3 CBR 320 kbps (LAME 3.93) - 346 MB | Covers - 127 MB
Genre: Electronic, Ambient | RAR 3% Rec. | Label: Invisible Shadows, Strange Life Records

"Based out of the town Zutphen, Netherlands, one man artist Boele Gerkes produces old-school synthesizer music inspired by Klaus Schulze,Tangerine Dream, Jean Michel Jarre, Kraftwerk and Vangelis."

Something Completely Different - 2 Albums (2003-2006)

Something Completely Different - Book Of Love (2003)
EAC Rip | FLAC (image+.cue+log) - 501 MB | MP3 CBR 320 kbps (LAME 3.93) - 185 MB | Covers - 104 MB
Genre: Electronic, Ambient | RAR 3% Rec. | Label: Invisible Shadows (ISCD030317)

Tracklist:
01. King Of Salem
02. The Well Of Room
03. A Fight At Pniƫl
04. 41
05. Rose Of Sharon
06. The Day The Sun Stood Still
07. Fountain Of Tears
08. A Floating Axe
09. The Garden Of Gethsemane
10. Lightning And Snow
11. Declension
12. 3-1/2 Years
13. Shortened Days
14. Small Stones

Total time: 01:18:28

Exact Audio Copy V1.0 beta 3 from 29. August 2011

EAC extraction logfile from 12. February 2012, 14:10

S.C.D. / Book Of Love

Used drive : PLEXTOR BDDVDR PX-B320SA Adapter: 0 ID: 2

Read mode : Secure
Utilize accurate stream : Yes
Defeat audio cache : Yes
Make use of C2 pointers : No

Read offset correction

: 6
Overread into Lead-In and Lead-Out : No
Fill up missing offset samples with silence : Yes
Delete leading and trailing silent blocks : No
Null samples used in CRC calculations : Yes
Used interface
: Native Win32 interface for Win NT & 2000

Used output format : User Defined Encoder
Selected bitrate : 128 kBit/s
Quality : High
Add ID3 tag : No
Command line compressor : C:\Program Files (x86)\FLAC\flac.exe
Additional command line options : -V -8 -T "Date=%year%" -T "Genre=%genre%" %source%

TOC of the extracted CD Track | Start | Length | Start sector | End sector
1 | 0:00.00 | 5:18.11 | 0 | 23860 2 | 5:18.11 | 6:34.47 | 23861 | 53457 3 | 11:52.58 | 4:54.67 | 53458 | 75574 4 | 16:47.50 | 7:06.57 | 75575 | 107581 5 | 23:54.32 | 6:16.03 | 107582 | 135784 6 | 30:10.35 | 4:19.19 | 135785 | 155228 7 | 34:29.54 | 4:28.01 | 155229 | 175329 8 | 38:57.55 | 4:39.70 | 175330 | 196324 9 | 43:37.50 | 6:42.41 | 196325 | 226515
10 | 50:20.16 | 6:48.38 | 226516 | 257153
11 | 57:08.54 | 4:34.23 | 257154 | 277726
12 | 61:43.02 | 5:15.69 | 277727 | 301420
13 | 66:58.71 | 5:57.00 | 301421 | 328195
14 | 72:55.71 | 5:32.36 | 328196 | 353131

Range status and errors

Selected range Filename D:\S.C.D. (Something Completely Different) - Book Of Love (2003)\S.C.D. - Book Of Love.wav Peak level 100.0 %
Extraction speed 0.6 X
Range quality 99.9 %
Test CRC CF865AEE
Copy CRC CF865AEE
Copy OK

No errors occurred


AccurateRip summary

Track 1 not present in database
Track 2 not present in database
Track 3 not present in database
Track 4 not present in database
Track 5 not present in database
Track 6 not present in database
Track 7 not present in database
Track 8 not present in database
Track 9 not present in database
Track 10 not present in database
Track 11 not present in database
Track 12 not present in database
Track 13 not present in database
Track 14 not present in database

None of the tracks are present in the AccurateRip database

End of status report

==== Log checksum 9751FCF76D1BD0D874331F3E49AC1724AF7678C4AB800CF4F637A196097F5227 ====

[CUETools log; Date: 08.06.2015 23:25:17; Version: 2.1.4]
[CTDB TOCID: Cq6pZwItmqj8z9haoL5RpnHPWLk-] disk not present in database.
[AccurateRip ID: 0028b31b-01b0ad78-9f12640e] found.
Track [ CRC | V2 ] Status
01 [a548c99e|8360f9f2] (0+3/3) Accurately ripped
02 [9bc7a758|e8c0be61] (0+3/3) Accurately ripped
03 [f075dff4|5a740cdd] (0+3/3) Accurately ripped
04 [c95edd7c|26049e24] (0+3/3) Accurately ripped
05 [1b243f9a|0476485f] (0+3/3) Accurately ripped
06 [552bd2ea|3122d78d] (0+3/3) Accurately ripped
07 [eb5ffc5a|4008e1fb] (0+3/3) Accurately ripped
08 [2e5d2a86|16c9bce6] (0+3/3) Accurately ripped
09 [db10dd32|c99fbf52] (0+3/3) Accurately ripped
10 [7825c286|36cbd210] (0+3/3) Accurately ripped
11 [940c4890|635d2b6f] (0+3/3) Accurately ripped
12 [c0681fb3|698b0b24] (0+3/3) Accurately ripped
13 [6f6d602b|d8999dff] (0+3/3) Accurately ripped
14 [2d687e16|36893447] (0+3/3) Accurately ripped

Track Peak [ CRC32 ] [W/O NULL] [ LOG ]
-- 100,0 [CF865AEE] [36562EA2] CRC32
01 93,5 [3AB06AC9] [D5DBA81A]
02 90,5 [2C8727AF] [206BBE10]
03 92,6 [DB7CDF53] [9BECBC02]
04 85,7 [E25E6241] [F23E55B6]
05 100,0 [5FE0D83D] [8D1305CF]
06 98,1 [8DD90201] [9CD91879]
07 89,0 [1182BF3B] [A02C959F]
08 94,7 26A4250 FE94DE6
09 91,4 [5BD01DFC] [8F91C8CA]
10 92,3 [2D96AE17] [691F9B79]
11 99,9 [95C29FDB] [61D247EE]
12 90,9 [FD356AAC] [982B3226]
13 82,3 [9C3086E1] [F24A443D]
14 90,7 [29E93A9F] [97183CDC]


Something Completely Different - 2 Albums (2003-2006)

Something Completely Different - Songs From 1981-87 (2006)
EAC Rip | FLAC (image+.cue+log) - 374 MB | MP3 CBR 320 kbps (LAME 3.93) - 161 MB | Covers - 23 MB
Genre: Electronic, Ambient | RAR 3% Rec. | Label: Invisible Shadows (ISCD030317)

Tracklist:
01. Fender Volume Organ
02. 4th Jen Song
03. Poly 800-7
04. Philicorda 2
05. Twin Peaks 2
06. Jan Hammer
07. Polysix-1
08. The Whale Poly 800
09. Poly 800-8
10. 1e ESQ Nummer
11. Filmscore
12. Poly 800-2
13. Bayerisch
14. Poly 800-5 Distorted
15. Intro Met ESQ-1
16. Poly 800-4 Plus String
17. Submarine
18. Seagulls
19. Brazen Sky Polysix
20. Ryuteki

Total time: 01:08:33

Exact Audio Copy V1.0 beta 3 from 29. August 2011

EAC extraction logfile from 12. February 2012, 15:45

S.C.D. / Songs From 1981-87

Used drive : PLEXTOR BDDVDR PX-B320SA Adapter: 0 ID: 2

Read mode : Secure
Utilize accurate stream : Yes
Defeat audio cache : Yes
Make use of C2 pointers : No

Read offset correction

: 6
Overread into Lead-In and Lead-Out : No
Fill up missing offset samples with silence : Yes
Delete leading and trailing silent blocks : No
Null samples used in CRC calculations : Yes
Used interface
: Native Win32 interface for Win NT & 2000

Used output format : User Defined Encoder
Selected bitrate : 128 kBit/s
Quality : High
Add ID3 tag : No
Command line compressor : C:\Program Files (x86)\FLAC\flac.exe
Additional command line options : -V -8 -T "Date=%year%" -T "Genre=%genre%" %source%

TOC of the extracted CD Track | Start | Length | Start sector | End sector
1 | 0:00.00 | 2:03.45 | 0 | 9269 2 | 2:03.45 | 3:34.11 | 9270 | 25330 3 | 5:37.56 | 2:14.30 | 25331 | 35410 4 | 7:52.11 | 6:37.22 | 35411 | 65207 5 | 14:29.33 | 2:57.69 | 65208 | 78551 6 | 17:27.27 | 3:56.55 | 78552 | 96306 7 | 21:24.07 | 3:54.00 | 96307 | 113856 8 | 25:18.07 | 5:51.03 | 113857 | 140184 9 | 31:09.10 | 3:49.72 | 140185 | 157431
10 | 34:59.07 | 2:31.28 | 157432 | 168784
11 | 37:30.35 | 0:34.27 | 168785 | 171361
12 | 38:04.62 | 3:20.60 | 171362 | 186421
13 | 41:25.47 | 4:03.58 | 186422 | 204704
14 | 45:29.30 | 3:15.05 | 204705 | 219334
15 | 48:44.35 | 1:26.45 | 219335 | 225829
16 | 50:11.05 | 3:00.28 | 225830 | 239357
17 | 53:11.33 | 4:44.08 | 239358 | 260665
18 | 57:55.41 | 5:40.18 | 260666 | 286183
19 | 63:35.59 | 2:38.72 | 286184 | 298105
20 | 66:14.56 | 2:17.63 | 298106 | 308443

Range status and errors

Selected range Filename D:\S.C.D. (Something Completely Different) - Songs From 1981-87 (2006)\S.C.D. - Songs From 1981-87.wav Peak level 100.0 %
Extraction speed 0.8 X
Range quality 100.0 %
Test CRC D2C8EFC7
Copy CRC D2C8EFC7
Copy OK

No errors occurred


AccurateRip summary

Track 1 not present in database
Track 2 not present in database
Track 3 not present in database
Track 4 not present in database
Track 5 not present in database
Track 6 not present in database
Track 7 not present in database
Track 8 not present in database
Track 9 not present in database
Track 10 not present in database
Track 11 not present in database
Track 12 not present in database
Track 13 not present in database
Track 14 not present in database
Track 15 not present in database
Track 16 not present in database
Track 17 not present in database
Track 18 not present in database
Track 19 not present in database
Track 20 not present in database

None of the tracks are present in the AccurateRip database

End of status report

==== Log checksum BBF6AEB7752B91B74C04A3C8770FE62D50338814BFED4E9DB2B4ABD0A98C0C93 ====

[CUETools log; Date: 08.06.2015 23:27:02; Version: 2.1.4]
[CTDB TOCID: CG0fLi2nc3eV7C28GmKB5vaXjhs-] disk not present in database.
[AccurateRip ID: 0032367e-02df721e-1f101014] found.
Track [ CRC | V2 ] Status
01 [9627aabf|6ded6cce] (0+1/1) Accurately ripped
02 [2df9165b|0e86470a] (0+1/1) Accurately ripped
03 [8c9431a8|646af0e1] (0+1/1) Accurately ripped
04 [3140375e|f228c44a] (0+1/1) Accurately ripped
05 [dba66732|5144a2f7] (0+1/1) Accurately ripped
06 [cd6b0df7|51d17cc8] (0+1/1) Accurately ripped
07 [7b4e0bde|ddbd0c27] (0+1/1) Accurately ripped
08 [617167c3|6454148c] (0+1/1) Accurately ripped
09 [3a146e25|56d375c4] (0+1/1) Accurately ripped
10 [328afe55|86a0a6c1] (0+1/1) Accurately ripped
11 [2c48be6d|828364e2] (0+1/1) Accurately ripped
12 [c220d4bb|c7cbda05] (0+1/1) Accurately ripped
13 [ef66105f|fb88ace8] (0+1/1) Accurately ripped
14 [e6fd21ef|2c7ca83e] (0+1/1) Accurately ripped
15 [0392ef21|7bea61e4] (0+1/1) Accurately ripped
16 [7ba83f49|30c54be8] (0+1/1) Accurately ripped
17 [65b60d2a|7f7defca] (0+1/1) Accurately ripped
18 [fc5df009|1266d546] (0+1/1) Accurately ripped
19 [4a55d3e9|c3258554] (0+1/1) Accurately ripped
20 [421fd28a|6da61d38] (0+1/1) Accurately ripped

Track Peak [ CRC32 ] [W/O NULL] [ LOG ]
-- 100,0 [D2C8EFC7] [A85DFEFF] CRC32
01 89,9 [32FBA956] [1F3D0B5E]
02 99,4 [CE55E9E9] [FE66D4D7]
03 97,8 [3172F028] [E4E1A46A]
04 100,0 [9B787857] [A4F6642D]
05 57,5 [03529A4C] [DC019DC2]
06 100,0 [7EB1FB03] [D2FAFE87]
07 97,3 [141194E3] [A0C9E5B7]
08 98,7 [80669BB5] [DF33B4C1]
09 100,0 [C183E666] [5A671097]
10 95,7 [EDF222F0] [2EA448E9]
11 90,7 [97046397] [5B5CB268]
12 90,5 [CF3C6BFC] 83CC349
13 99,5 [3209BF7E] [0D0607C2]
14 98,2 [FED27C77] [DF71944D]
15 95,1 [74872297] [589E25D3]
16 97,0 F04B856 [06B1FD25]
17 93,3 [82F22B19] [7F54FEE6]
18 100,0 [6E463B57] [224F4E6A]
19 93,4 [816F35C4] [46536DE5]
20 87,9 [E0E1C0FE] [6CEF7169]

Thanks to DmXpert
DOWNLOAD LINKS
Buy Premium From My Links To Get Resumable Support & Max Speed & To Support Me


Links are Interchangeable - No Password - Single Extraction
Direct Download

Tags: Something, Completely, Different, Albums

Something Completely Different - 2 Albums (2003-2006) Download via Hotfile Rapidshare Fileserve Megaupload & FileSonic, Something Completely Different - 2 Albums (2003-2006) free torrent downloads included crack, serial, keygen.Something Completely Different - 2 Albums (2003-2006) Fast Download via Rapidshare Hotfile Fileserve Filesonic Megaupload, Something Completely Different - 2 Albums (2003-2006) Torrents and Emule Download or anything related.
Leave a Comment
Your Name:
E-Mail:
Add Comments:

Enter Code: