Paul Kossoff - Back Street Crawler (1973)

Download Now

Paul Kossoff - Back Street Crawler (1973)

Paul Kossoff - Back Street Crawler (1973)
EAC | Flac(Image) + Cue + Log & MP3 CBR 320Kbps
1990 | Island, IMCD 84/842 553-2 | ~ 226 or 90 Mb | Scans Included
Blues Rock / Classic Rock

"Back Street Crawler, despite being Paul Kossoff's first post-Free album, contains contributions from all members of that band. "Molten Gold," the most accessible song on the album, features the talent of Free vocalist Paul Rodgers, and is an overlooked shoulda-been hit. Otherwise, the album is highlighted by Kossoff's blues- and rock-based guitar..."


Tracklist:

01. Tuesday Morning 17:39
02. I'm Ready (Jess Roden, Jean Roussel) 02:28
03. Time Away (Kossoff, John Martyn) 05:48
04. Molton Gold 05:54
05. Back Street Crawler (Don't Need You No More) 04:09

Musicians:

Paul Kossoff - lead guitar
Trevor Burton - bass guitar on "Tuesday Morning"
Alan White - drums on "Tuesday Morning", "I'm Ready"
John "Rabbit" Bundrick - keyboards on "Tuesday Morning", organ, chimes, piano on "Molten Gold"
Alan Spenner - bass guitar on "I'm Ready"
Jean Roussel - keyboards on "I'm Ready"
Jess Roden - lead vocals on "I'm Ready", harmony vocals on "Molten Gold"
Tetsu Yamauchi - bass guitar on "Time Away"
Simon Kirke - drums on "Time Away", "Molten Gold"
John Martyn - guitar on "Time Away", "May You Never"
Paul Rodgers - lead vocals on "Molten Gold"
Andy Fraser - bass guitar on "Molten Gold"


Exact Audio Copy V1.0 beta 1 from 15. November 2010

EAC extraction logfile from 19. September 2014, 16:44

Paul Kossoff / Back Street Crawler

Used drive : MATSHITADVD-RAM UJ8A0AS Adapter: 0 ID: 1

Read mode : Secure
Utilize accurate stream : Yes
Defeat audio cache : Yes
Make use of C2 pointers : No

Read offset correction

: 102
Overread into Lead-In and Lead-Out : No
Fill up missing offset samples with silence : Yes
Delete leading and trailing silent blocks : No
Null samples used in CRC calculations : Yes
Used interface
: Native Win32 interface for Win NT & 2000

Used output format : Internal WAV Routines
Sample format : 44.100 Hz; 16 Bit; Stereo

TOC of the extracted CD Track | Start | Length | Start sector | End sector
1 | 0:00.32 | 17:39.18 | 32 | 79474 2 | 17:39.50 | 2:28.70 | 79475 | 90644 3 | 20:08.45 | 5:48.50 | 90645 | 116794 4 | 25:57.20 | 5:54.10 | 116795 | 143354 5 | 31:51.30 | 4:09.15 | 143355 | 162044

Range status and errors

Selected range Filename C:\Users\Alex\Music\Paul Kossoff - Back Street Crawler.wav Peak level 95.1 %
Extraction speed 0.1 X
Range quality 100.0 %
Test CRC B1ACE96C
Copy CRC B1ACE96C
Copy OK

No errors occurred


AccurateRip summary

Track 1 accurately ripped (confidence 7) [50C6E05C]
Track 2 accurately ripped (confidence 7) [0158EA75]
Track 3 accurately ripped (confidence 7) [6182DB08]
Track 4 accurately ripped (confidence 7) 5F7C381
Track 5 accurately ripped (confidence 7) [3BEED9FC]

All tracks accurately ripped

End of status report

==== Log checksum C3DE9AEBD94F1DA4793A64EB6D487DC899EFD9E2E9D95EC8D71C46CA8C0242A7 ====

foobar2000 1.2.9 / Dynamic Range Meter 1.1.1
log date: 2015-06-09 12:59:35

------
Analyzed: Paul Kossoff / Back Street Crawler
------

DR Peak RMS Duration Track
------
DR12 -1.62 dB -15.78 dB 17:39 01-Tuesday Morning
DR14 -0.43 dB -17.73 dB 2:29 02-I'm Ready
DR15 -2.61 dB -20.57 dB 5:49 03-Time Away
DR13 -2.34 dB -19.05 dB 5:54 04-Molton Gold
DR11 -2.43 dB -16.31 dB 4:09 05-Back Street Crawler
------

Number of tracks: 5
Official DR value: DR13

Samplerate: 44100 Hz
Channels: 2
Bits per sample: 16
Bitrate: 806 kbps
Codec: FLAC

[CUETools log; Date: 11.04.2015 22:25:32; Version: 2.1.4]
Pregap length 00:00:32.
[CTDB TOCID: Vfx9VrYqdjF_xSpo7jS_m_aQhOI-] found.
Track | CTDB Status
1 | (4/4) Accurately ripped
2 | (4/4) Accurately ripped
3 | (4/4) Accurately ripped
4 | (4/4) Accurately ripped
5 | (4/4) Accurately ripped
[AccurateRip ID: 000909db-00277a06-30087005] found.
Track [ CRC | V2 ] Status
01 [50c6e05c|1c079d96] (17+08/34) Accurately ripped
02 [0158ea75|f739e6f6] (17+08/34) Accurately ripped
03 [6182db08|b2a24b02] (17+08/34) Accurately ripped
04 5f7c381|aee6f025 (17+08/34) Accurately ripped
05 [3beed9fc|c6ead577] (16+08/33) Accurately ripped
Offsetted by 667:
01 [97a4538f] (05/34) Accurately ripped
02 [28abc054] (05/34) Accurately ripped
03 [33f51a9c] (05/34) Accurately ripped
04 [441e160a] (05/34) Accurately ripped
05 [a7a77d3e] (05/33) Accurately ripped

Track Peak [ CRC32 ] [W/O NULL] [ LOG ]
-- 95,1 1ACE96C [D7F610A7] CRC32
01 82,9 [1EBB66AD] [AC0C3CD7]
02 95,1 [5EC4A874] [D1A35C4B]
03 74,0 [CA55A022] [796FC742]
04 76,3 [D7F23955] [679BE9E7]
05 75,5 [492A2319] [02E64F05]

Paul Kossoff - Back Street Crawler (1973)

DOWNLOAD LINKS
Buy Premium From My Links To Get Resumable Support & Max Speed & To Support Me


Links are Interchangeable - No Password - Single Extraction
Direct Download

Tags: Kossoff, Street, Crawler

Paul Kossoff - Back Street Crawler (1973) Download via Hotfile Rapidshare Fileserve Megaupload & FileSonic, Paul Kossoff - Back Street Crawler (1973) free torrent downloads included crack, serial, keygen.Paul Kossoff - Back Street Crawler (1973) Fast Download via Rapidshare Hotfile Fileserve Filesonic Megaupload, Paul Kossoff - Back Street Crawler (1973) Torrents and Emule Download or anything related.
Leave a Comment
Your Name:
E-Mail:
Add Comments:

Enter Code: