Rush - Roll The Bones (1991) [Audio Fidelity Gold HDCD '2011] RE-UP

Download Now

Rush - Roll The Bones (1991) [Audio Fidelity Gold HDCD '2011] RE-UP

Rush - Roll The Bones (1991) [Audio Fidelity Gold CD '2011]
EAC | FLAC with CUE and LOG - 386 MB | Full PNG Scans | MP3 CBR 320 Kbps - 159 MB
Rock / Progressive Rock | TT - 48:07 minutes | Label: Audio Fidelity / Gold HDCD # AFZ 116

US only limited numbered edition. Pressed on 24 karat gold! Roll The Bones, Rush's 14th studio album, released in 1991, is a fantastic blend of tempos, ideas, and musical explorations. The album marks further transition from the band's 1980s style to their sound in the 1990s - it still has Rush's dark mystique but it is a more pop-oriented album. There are four popular radio staples, "Bravado", "Ghost Of A Chance", "Roll the Bones" and "Dreamline" with the former reaching #1 on the US Mainstream Rock chart, while "Where's My Thing" was Grammy nominated for Best Rock Instrumental. The band reunited with producer Rupert Hine for his second Rush album and "Roll the Bones" became their first US Top 5 album since 1981 peaking at #3 on the Billboard Top 200. The album also won the Canadian band that country's 1992 Juno Award for best album cover design.
"allmusic.com says: From a lyrical perspective, 1991's Roll the Bones is quite possibly Rush's darkest album (most of the songs deal with death in no uncertain terms), but from a musical point of view, the record treads territory (highbrow melodic hard rock) similar to its recent predecessors, with only a few surprises thrown in for good measure. These include an amusing rap section in the middle of the title track, a welcome return to instrumentals with "Where's my Thing?," and one of the band's finest songs of the '90s in the gutsy "Dreamline." "Neurotica" is another highlight which lives up to its title, and though their negative subject matter can feel stifling at times, fine tracks like "Bravado," "The Big Wheel," and "Heresy" feature wonderful melodies and arrangements."


Tracks:

01. Dreamline
02. Bravado
03. Roll The Bones
04. Face Up
05. Where's My Thing
06. The Big Wheel
07. Heresy
08. Ghost Of A Chance
09. Neurotica
10. You Bet Your Life

Produced by Rupert Hine and Rush.
Mastered for AF Gold CD by Kevin Gray.

More information @ Wikipedia

Many thanks to taurus66!

Exact Audio Copy V1.0 beta 2 from 29. April 2011

EAC extraction logfile from 22. August 2011, 22:31

Rush / Roll The Bones [AFZ 116,2011]

Used drive : Optiarc DVD RW AD-7200S Adapter: 1 ID: 0

Read mode : Secure
Utilize accurate stream : Yes
Defeat audio cache : Yes
Make use of C2 pointers : No

Read offset correction

: 48
Overread into Lead-In and Lead-Out : No
Fill up missing offset samples with silence : Yes
Delete leading and trailing silent blocks : No
Null samples used in CRC calculations : Yes
Used interface
: Installed external ASPI interface

Used output format : User Defined Encoder
Selected bitrate : 1024 kBit/s
Quality : High
Add ID3 tag : No
Command line compressor : C:\Program Files\Exact Audio Copy\wavpack.exe
Additional command line options : -hm %source% %dest%

TOC of the extracted CD Track | Start | Length | Start sector | End sector
1 | 0:00.00 | 4:37.43 | 0 | 208172 | 4:37.43 | 4:35.68 | 20818 | 415103 | 9:13.36 | 5:30.19 | 41511 | 662794 | 14:43.55 | 3:53.74 | 66280 | 838285 | 18:37.54 | 3:51.28 | 83829 | 1011816 | 22:29.07 | 5:12.35 | 101182 | 1246167 | 27:41.42 | 5:26.11 | 124617 | 1490778 | 33:07.53 | 5:18.73 | 149078 | 1730009 | 38:26.51 | 4:39.73 | 173001 | 193998
10 | 43:06.49 | 5:00.21 | 193999 | 216519

Range status and errors

Selected range Filename C:\lossless\Rush\Rush - Roll The Bones [AFZ 116,2011].wav Peak level 100.0 %
Extraction speed 3.7 X
Range quality 100.0 %
Test CRC 96E062DD
Copy CRC 96E062DD
Copy OK

No errors occurred

AccurateRip summary

Track 1 not present in database
Track 2 not present in database
Track 3 not present in database
Track 4 not present in database
Track 5 not present in database
Track 6 not present in database
Track 7 not present in database
Track 8 not present in database
Track 9 not present in database
Track 10 not present in database

None of the tracks are present in the AccurateRip database

End of status report

==== Log checksum F97A79B110B788D34CBCF239B5419A1AF42C7B5A13AB628366D0A5E35AE74455 ====

..........................................

HDCD: peak extend: none, transient filter: none, gain: none
[AccurateRip ID: 0011dd93-008f7365-9d0b460a] found.
Track [ CRC ] Status
01 [827975a3] (4/4) Accurately ripped
02 [ff2527de] (4/4) Accurately ripped
03 [da17551f] (4/4) Accurately ripped
04 [579574b0] (4/4) Accurately ripped
05 [ce7ed910] (4/4) Accurately ripped
06 [25da6fd5] (4/4) Accurately ripped
07 [cba9fbdf] (4/4) Accurately ripped
08 [91d16cae] (4/4) Accurately ripped
09 [79db34ea] (4/4) Accurately ripped
10 [2c0434e6] (4/4) Accurately ripped

Track Peak [ CRC32 ] [W/O NULL] [ LOG ]
-- 100,0 [96E062DD] [386B93BF] CRC32
01 100,0 [6115B539] [2669476A]
02 100,0 [0B99C256] [1F1395DE]
03 100,0 [85CCA800] [E7B24FFE]
04 100,0 [FDFAF7AB] [65DB0EBA]
05 100,0 [848B022F] [E95C15F0]
06 100,0 [13EB26D2] [E6DAE398]
07 100,0 [759B4126] [651AA5FD]
08 100,0 [C9DB9AF5] [AEE331E9]
09 100,0 [FAEB12BC] [F9C23AEF]
10 100,0 [79AA3D74] [A5F28C36]

Dynamic Range: 16.
DOWNLOAD LINKS:
Buy Premium To Support Me & Get Resumable Support & Max Speed


Links are Interchangeable - No Password - Single Extraction
Direct Download

Tags: Fidelity

Rush - Roll The Bones (1991) [Audio Fidelity Gold HDCD '2011] RE-UP Download via Hotfile Rapidshare Fileserve Megaupload & FileSonic, Rush - Roll The Bones (1991) [Audio Fidelity Gold HDCD '2011] RE-UP free torrent downloads included crack, serial, keygen.Rush - Roll The Bones (1991) [Audio Fidelity Gold HDCD '2011] RE-UP Fast Download via Rapidshare Hotfile Fileserve Filesonic Megaupload, Rush - Roll The Bones (1991) [Audio Fidelity Gold HDCD '2011] RE-UP Torrents and Emule Download or anything related.
Leave a Comment
Your Name:
E-Mail:
Add Comments:

Enter Code: