Little Feat - The Best Of Little Feat (2006) RE-UP

Download Now

Little Feat - The Best Of Little Feat (2006) RE-UP

Little Feat - The Best Of Little Feat (2006)
EAC-FLAC with CUE & LOG - 437 MB | Full Scans | MP3 CBR 320 Kbps - 149 MB
Blues Rock / Southern Rock | TT - 64:45 minutes | Label: Rhino | Cat. # 70804-2

Little Feat formed in Hollywood, CA in 1969 and with their idiosynchratic sound--a crowd-pleasing, genre-transcending fusion of rock and roll, Dixie-boogie, blues, folk, funk, jazz, roots music, and more--the remain one of rock's most enuring acts, still driven by ace musicianship and inspired songwriting. This new collection is an essential overview of the musical heroes that Led Zeppelin's Jimmy Page once called his, "favorite American group".
"There have been many Little Feat compilations released over the years, but Rhino's 2006 The Best of Little Feat is the first single-disc hits collection to appear in the U.S., so it shouldn't be surprising that it's tilted ever so slightly toward the American market, where Little Feat was still touring steadily and successfully at the time of this disc's release. That means that it has a healthy dose of recordings from the reunited Little Feat -- four tracks, actually, which is a pretty high percentage for a 17-track collection. Since the reunited Little Feat has actually been together longer than the classic Lowell George-fronted lineup, this does make some sense, and the selections are good, even if it is strange that "Hate to Lose Your Lovin'," the first single from their 1988 comeback, Let It Roll, and a radio hit, is missing. Of course, there are some odd oversights from the George years -- most notably Sailin' Shoes is somewhat underplayed, with that song, "Easy to Slip," and "Teenage Nervous Breakdown" all MIA, but other standards like "Feats Don't Fail Me Now" and "Two Trains" are nowhere to be found either. These omissions mean that this Best of Little Feat is not the definitive single-disc overview of the group, but as a sampler it's not bad: there's plenty of great music here and as such it does serve as a rather effective introduction to the band, even if it doesn't tell a neophyte everything they should know about the group.

-- Stephen Thomas Erlewine, allmusic com
"


Tracks:

01. Hamburger Midnight
02. Cold, Cold, Cold
03. Tripe Face Boogie
04. Willin'
05. Dixie Chicken
06. Roll Um Easy
07. Fat Man In The Bathtub
08. Fool Yourself
09. All That You Dream (Live)
10. Oh Atlanta (Live)
11. Hi Roller
12. Time Loves A Hero
13. Down On The Farm
14. Let It Roll
15. Rad Gumbo
16. Cadillac Hotel
17. Home Ground

Compilation Produced by James Austin.

Thanks to the Original ripper!

Exact Audio Copy V0.99 prebeta 4 from 23. January 2008

EAC extraction logfile from 12. June 2008, 15:23

Little Feat / The Best of Little Feat

Used drive : TSSTcorpCD/DVDW SH-S182M Adapter: 4 ID: 0

Read mode : Secure
Utilize accurate stream : Yes
Defeat audio cache : Yes
Make use of C2 pointers : No

Read offset correction

: 6
Overread into Lead-In and Lead-Out : No
Fill up missing offset samples with silence : Yes
Delete leading and trailing silent blocks : No
Null samples used in CRC calculations : Yes
Used interface
: Installed external ASPI interface

Used output format : Internal WAV Routines
Sample format : 44.100 Hz; 16 Bit; Stereo

TOC of the extracted CD Track | Start | Length | Start sector | End sector
1 | 0:00.00 | 2:30.03 | 0 | 11252 2 | 2:30.03 | 4:00.03 | 11253 | 29255 3 | 6:30.06 | 3:14.04 | 29256 | 43809 4 | 9:44.10 | 2:56.51 | 43810 | 57060 5 | 12:40.61 | 3:55.46 | 57061 | 74731 6 | 16:36.32 | 2:32.41 | 74732 | 86172 7 | 19:08.73 | 4:31.61 | 86173 | 106558 8 | 23:40.59 | 3:16.30 | 106559 | 121288 9 | 26:57.14 | 4:33.47 | 121289 | 141810
10 | 31:30.61 | 4:20.07 | 141811 | 161317
11 | 35:50.68 | 3:36.62 | 161318 | 177579
12 | 39:27.55 | 3:47.65 | 177580 | 194669
13 | 43:15.45 | 3:48.74 | 194670 | 211843
14 | 47:04.44 | 4:30.71 | 211844 | 232164
15 | 51:35.40 | 3:30.50 | 232165 | 247964
16 | 55:06.15 | 5:32.10 | 247965 | 272874
17 | 60:38.25 | 4:07.07 | 272875 | 291406

Range status and errors

Selected range Filename F:\Release\Little Feat - The Best of Little Feat\Little Feat - The Best of Little Feat.wav Peak level 99.5 %
Range quality 100.0 %
Test CRC 7BBFE472
Copy CRC 7BBFE472
Copy OK

No errors occurred


AccurateRip summary

Track 1 not present in database
Track 2 cannot be verified as accurate (confidence 2) [14300D9E], AccurateRip returned [391ACED2]
Track 3 cannot be verified as accurate (confidence 2) [9CB56CE4], AccurateRip returned [8754BBEC]
Track 4 cannot be verified as accurate (confidence 2) [500617DB], AccurateRip returned [68597493]
Track 5 cannot be verified as accurate (confidence 3) [CC64C6E5], AccurateRip returned [EA1EAC31]
Track 6 cannot be verified as accurate (confidence 2) [7302FD5F], AccurateRip returned [3D599CC5]
Track 7 cannot be verified as accurate (confidence 3) [4834A414], AccurateRip returned [E4B7186E]
Track 8 cannot be verified as accurate (confidence 2) [CE13BB69], AccurateRip returned [6F4B7F53]
Track 9 cannot be verified as accurate (confidence 3) [0B0730DB], AccurateRip returned [214E9567]
Track 10 not present in database
Track 11 cannot be verified as accurate (confidence 2) [9AFC9406], AccurateRip returned [9E45389E]
Track 12 cannot be verified as accurate (confidence 3) [7206019C], AccurateRip returned [3F4E1F68]
Track 13 cannot be verified as accurate (confidence 3) [6B83F027], AccurateRip returned [48AE2439]
Track 14 cannot be verified as accurate (confidence 3) [557534A4], AccurateRip returned [181AC848]
Track 15 cannot be verified as accurate (confidence 3) [F3A98C12], AccurateRip returned [F3318E16]
Track 16 cannot be verified as accurate (confidence 2) [4310A751], AccurateRip returned [20B68D35]
Track 17 cannot be verified as accurate (confidence 2) [2CD5E152], AccurateRip returned [5072DED4]

15 track(s) could not be verified as accurate
2 track(s) not present in the AccurateRip database

No tracks could be verified as accurate
You may have a different pressing from the one(s) in the database

End of status report
DOWNLOAD LINKS
Buy Premium From My Links To Get Resumable Support & Max Speed & To Support Me


Links are Interchangeable - No Password - Single Extraction
Direct Download

Tags: Little, Little

Little Feat - The Best Of Little Feat (2006) RE-UP Download via Hotfile Rapidshare Fileserve Megaupload & FileSonic, Little Feat - The Best Of Little Feat (2006) RE-UP free torrent downloads included crack, serial, keygen.Little Feat - The Best Of Little Feat (2006) RE-UP Fast Download via Rapidshare Hotfile Fileserve Filesonic Megaupload, Little Feat - The Best Of Little Feat (2006) RE-UP Torrents and Emule Download or anything related.
Leave a Comment
Your Name:
E-Mail:
Add Comments:

Enter Code: