Gandalf - Sanctuary (2009)

Download Now

Gandalf - Sanctuary (2009)

Gandalf - Sanctuary (2009)
New Age | 1cd | EAC Rip | Flac + Cue + Log | covers
Real Music RM3165 | rel: 2009 | 335Mb

We all long for some kind of protected zone in our lives, a place to withdraw from the noise and craziness in the world, a refuge of balance and peace. Some find it in the silence of a forest, in the remoteness of mountains or the rolling waves by the seaside. Some find it in sacred places, praying or practicing meditation. Listeners all over the world tell me how my music helps them cope with the challenges of life. Please feel welcome to enter my musical Sanctuary.~Gandalf
Track listing
01. Alhambra - Prelude (1:38)
02. Under Southern Skies (7:25)
03. Once in A Star-Brightened Night (4:25)
04. Alhambra (6:30)
05. A Place in the Sun (5:36)
06. Citadel - Part 1 (5:59)
07. Citadel - Part 2 (5:08)
08. The Loveliest Flower in My Garden (4:37)
09. Pilgrims' Road (6:48)
10. A Place in the Sun - Interlude (1:20)
11. When Blossoms Turn to Fruit (3:59)
12. Alhambra - Reflections (2:45)
~ (56:09)

EAC extraction logfile from 24. April 2009, 11:50 for CD
Gandalf / Sanctuary

Used drive : TSSTcorpCD/DVDW TS-H652L Adapter: 0 ID: 0
Read mode : Secure with NO C2, accurate stream, disable cache
Read offset correction : 6
Overread into Lead-In and Lead-Out : No

Used output format : C:\Program Files\FLAC\flac.exe (User Defined Encoder) 256 kBit/s Additional command line options : -8 -V -T "ARTIST=%a" -T "TITLE=%t" -T "ALBUM=%g" -T "DATE=%y" -T "TRACKNUMBER=%n" -T "GENRE=%m" -T "COMMENT=EAC FLAC -8" %s

Other options :
Fill up missing offset samples with silence : Yes
Delete leading and trailing silent blocks : No
Installed external ASPI interface

Track 1
Filename D:\Flac Rips\01 - Alhambra - Prelude.wav Pre-gap length 0:00:02.00 Peak level 98.8 %
Track quality 100.0 %
Test CRC 89F6F28F
Copy CRC 89F6F28F
Copy OK

Track 2
Filename D:\Flac Rips\02 - Under Southern Skies.wav Peak level 98.8 %
Track quality 100.0 %
Test CRC 8AF44207
Copy CRC 8AF44207
Copy OK

Track 3
Filename D:\Flac Rips\03 - Once in A Star-Brightened Night.wav Peak level 98.8 %
Track quality 100.0 %
Test CRC 9409C197
Copy CRC 9409C197
Copy OK

Track 4
Filename D:\Flac Rips\04 - Alhambra.wav Peak level 98.8 %
Track quality 99.9 %
Test CRC E52CF3D7
Copy CRC E52CF3D7
Copy OK

Track 5
Filename D:\Flac Rips\05 - A Place in the Sun.wav Peak level 98.8 %
Track quality 100.0 %
Test CRC 80F70984
Copy CRC 80F70984
Copy OK

Track 6
Filename D:\Flac Rips\06 - Citadel - Part 1.wav Peak level 98.8 %
Track quality 100.0 %
Test CRC 32E09019
Copy CRC 32E09019
Copy OK

Track 7
Filename D:\Flac Rips\07 - Citadel - Part 2.wav Peak level 98.8 %
Track quality 99.9 %
Test CRC 4261E263
Copy CRC 4261E263
Copy OK

Track 8
Filename D:\Flac Rips\08 - The Loveliest Flower in My Garden.wav Peak level 98.8 %
Track quality 100.0 %
Test CRC CEE7DF7C
Copy CRC CEE7DF7C
Copy OK

Track 9
Filename D:\Flac Rips\09 - Pilgrims' Road.wav Peak level 98.8 %
Track quality 100.0 %
Test CRC 3B51444A
Copy CRC 3B51444A
Copy OK

Track 10
Filename D:\Flac Rips\10 - A Place in the Sun - Interlude.wav Peak level 98.8 %
Track quality 100.0 %
Test CRC 104DD13D
Copy CRC 104DD13D
Copy OK

Track 11
Filename D:\Flac Rips\11 - When Blossoms Turn to Fruit.wav Peak level 98.8 %
Track quality 100.0 %
Test CRC 8F97BED7
Copy CRC 8F97BED7
Copy OK

Track 12
Filename D:\Flac Rips\12 - Alhambra - Reflections.wav Peak level 98.8 %
Track quality 99.9 %
Test CRC 89DA2501
Copy CRC 89DA2501
Copy OK

No errors occured

End of status report

[CUETools log; Date: 2015.06.09. 10:43:32; Version: 2.1.5]
[CTDB TOCID: 7h1IZnXpNKGuovenxl4KD_GRmNQ-] found.
Track | CTDB Status
1 | (4/4) Accurately ripped
2 | (4/4) Accurately ripped
3 | (4/4) Accurately ripped
4 | (4/4) Accurately ripped
5 | (4/4) Accurately ripped
6 | (4/4) Accurately ripped
7 | (4/4) Accurately ripped
8 | (4/4) Accurately ripped
9 | (4/4) Accurately ripped
10 | (4/4) Accurately ripped
11 | (4/4) Accurately ripped
12 | (4/4) Accurately ripped
[AccurateRip ID: 001a862c-00f87bd9-9a0d280c] found.
Track [ CRC | V2 ] Status
01 [172db8c9|26b6213c] (05+02/12) Accurately ripped
02 [34038366|7db0204c] (05+02/12) Accurately ripped
03 [145d6535|7710ff87] (05+02/12) Accurately ripped
04 [3b33e8df|da6d504a] (05+02/12) Accurately ripped
05 016846d|74bfe5ac (05+02/12) Accurately ripped
06 [31665dde|9c110038] (05+02/12) Accurately ripped
07 [dcd4a2a9|e5b5f85c] (05+02/12) Accurately ripped
08 [ca6dc1c1|c854a9ff] (05+02/12) Accurately ripped
09 [1c8c5264|4ae46c2a] (05+02/12) Accurately ripped
10 [ae8b7df8|df7f51da] (05+02/12) Accurately ripped
11 [d51d43fa|81655119] (05+02/12) Accurately ripped
12 [53a87bcf|a88ea2cf] (05+02/12) Accurately ripped
Offsetted by -634:
01 [2be471a1] (02/12) Accurately ripped
02 [65b445e4] (02/12) Accurately ripped
03 b4f5795 (02/12) Accurately ripped
04 [a180af86] (02/12) Accurately ripped
05 [e8873a5d] (02/12) Accurately ripped
06 [6544369d] (02/12) Accurately ripped
07 [766de946] (02/12) Accurately ripped
08 [415a33e9] (02/12) Accurately ripped
09 [6226eda7] (02/12) Accurately ripped
10 [33642e83] (02/12) Accurately ripped
11 [f429dfc0] (02/12) Accurately ripped
12 [a057b532] (02/12) Accurately ripped
Offsetted by 6:
01 [65d23dc0] (00/12) No match (V2 was not tested)
02 [6f655ca9] (00/12) No match (V2 was not tested)
03 [57516e71] (00/12) No match (V2 was not tested)
04 [fa2f45a4] (00/12) No match (V2 was not tested)
05 [a2efecbc] (00/12) No match (V2 was not tested)
06 [a1925c77] (00/12) No match (V2 was not tested)
07 [5b04859f] (00/12) No match (V2 was not tested)
08 [fa2835ac] (00/12) No match (V2 was not tested)
09 [7bf08e3c] (00/12) No match (V2 was not tested)
10 [c5ab269a] (00/12) No match (V2 was not tested)
11 [20403317] (00/12) No match (V2 was not tested)
12 [6dfcb994] (00/12) No match (V2 was not tested)

Track Peak [ CRC32 ] [W/O NULL] [ LOG ]
-- 98,8 [F73379FB] [C498FED2]
01 98,8 [89F6F28F] [4D58CDA1] CRC32
02 98,8 [8AF44207] [E4338B08] CRC32
03 98,8 [9409C197] [3408F068] CRC32
04 98,8 [E52CF3D7] [47C5C9CE] CRC32
05 98,8 [80F70984] [3B623532] CRC32
06 98,8 [32E09019] [894752E5] CRC32
07 98,8 [4261E263] ABCDC18 CRC32
08 98,8 [CEE7DF7C] [404046E8] CRC32
09 98,8 [3B51444A] [399168BF] CRC32
10 98,8 [104DD13D] [0978FDBA] CRC32
11 98,8 [8F97BED7] [1B1A613F] CRC32
12 98,8 [89DA2501] [26887834] CRC32

original uploader unknown
DOWNLOAD LINKS
Buy Premium From My Links To Get Resumable Support & Max Speed & To Support Me


Links are Interchangeable - No Password - Single Extraction
Direct Download

Tags: Gandalf, Sanctuary

Gandalf - Sanctuary (2009) Download via Hotfile Rapidshare Fileserve Megaupload & FileSonic, Gandalf - Sanctuary (2009) free torrent downloads included crack, serial, keygen.Gandalf - Sanctuary (2009) Fast Download via Rapidshare Hotfile Fileserve Filesonic Megaupload, Gandalf - Sanctuary (2009) Torrents and Emule Download or anything related.
Leave a Comment
Your Name:
E-Mail:
Add Comments:

Enter Code: