The Rollers - Elevator (1979)

Download Now

The Rollers - Elevator (1979)

The Rollers - Elevator (1979)
Rock | 1cd | EAC Rip | Flac + Cue + Log | covers
7T's Records, GLAMCD47 | rem: 2008 | 345Mb

The end was nigh as the Bay City Rollers prepared to record Elevator in 1979; indeed, many people might have believed they had already come and gone. Les McKeown was out, replaced by the unknown Duncan Faure, and Arista, the band's label for five years, had lost interest long ago. If it hadn't been for a slight contretemps over the LP's sleeve design -- the Rollers chose a picture of a pill, the label replaced it with a mellow band shot -- Elevator might have passed without even drawing the puns that its title invited.
(Going down?) Elevator does, in fact, stand as perhaps the most convincingly musical of all the band's albums -- Trouser Press magazine even compared it to the Beatles' Rubber Soul. That might be pushing the envelope somewhat, but still the band had shrugged off the teeny sound of yesteryear and, unlike others who made a similar move, unearthed a worthwhile vibe with which to replace it. The ensuing hard rocking AOR direction was so convincing that, had they not been the Rollers, they could have given the likes of Foreigner and Toto a run for their money. "Turn on the Radio" certainly remains a fine number, while "Hello and Welcome Home" and "I Was Eleven" are also solid gold. But it really didn't matter how good the album was. The Rollers' day was done, and the rest of their career was simply the crumbs beneath the table. Bye bye baby, indeed. ~Allmusic

Track listing
01. Stoned Houses # 1 (1:10)
02. Elevator (3:13)
03. Playing in a rock and roll band (3:45)
04. Hello and welcome home (4:28)
05. I was eleven (3:10)
06. Stoned Houses #2 (3:53)
07. Turn on the radio (3:42)
08. Instant relay (4:09)
09. Tomorrows just a day away (1:15)
10. Who´ll be my keeper (3:33)
11. Back on the road again (3:57)
12. Washingtons birthday (3:46)
~ (40:00)

Personnel
- Eric Faulkner - Guitar, acoustic guitar, vocals, lead vocal
- Duncan Faure - Lead vocals, piano, moog, guitars
- Alan Longmuir - Guitar, bass, vocals, string machine
- Derek Longmuir - Drums, percussion
- Stuart "Woody" Wood - Bass, piano, moog, string machine, clavinet, vocals, lead vocal

Exact Audio Copy V0.99 prebeta 5 from 4. May 2009

Отчёт EAC об извлечении, выполненном 7. октября 2009, 15:42

The Rollers / Elevator

Дисковод: HL-DT-STDVDRAM GSA-T20N Adapter: 1 ID: 0

Режим чтения : Достоверность
Использование точного потока : Да
Отключение кэша аудио : Да
Использование указателей C2 : Нет

Коррекция смещения при чтении : 667
Способность читать области Lead-in и Lead-out : Нет
Заполнение пропущенных сэмплов тишиной : Да
Удаление блоков с тишиной в начале и конце : Нет
При вычислениях CRC использовались нулевые сэмплы : Да
Интерфейс : Встроенный Win32-интерфейс для Win NT/2000

Выходной формат : Пользовательский кодировщик
Выбранный битрейт : 768 kBit/s
Качество : Высокий
Добавление ID3-тэга : Нет
Утилита сжатия : C:\Program Files\Exact Audio Copy\FLAC\FLAC.EXE
Дополнительные параметры : -8 -V %s

TOC извлечённого CD Трек | Старт | Длительность | Начальный сектор | Конечный сектор

1 | 0:00.00 | 1:09.41 | 0 | 5215
2 | 1:09.41 | 3:12.40 | 5216 | 19655
3 | 4:22.06 | 3:44.41 | 19656 | 36496
4 | 8:06.47 | 4:28.32 | 36497 | 56628
5 | 12:35.04 | 3:10.22 | 56629 | 70900
6 | 15:45.26 | 3:52.69 | 70901 | 88369
7 | 19:38.20 | 3:42.08 | 88370 | 105027
8 | 23:20.28 | 4:08.45 | 105028 | 123672
9 | 27:28.73 | 1:14.62 | 123673 | 129284
10 | 28:43.60 | 3:32.65 | 129285 | 145249
11 | 32:16.50 | 3:57.36 | 145250 | 163060
12 | 36:14.11 | 3:45.59 | 163061 | 179994

Характеристики диапазона извлечения и сообщения об ошибках

Выбранный диапазон Имя файла D:\Azureus Downloads\Rollers ( Bay City Rollers) Studio Albums 1979-1981\Elevator 1979\The Rollers - Elevator.wav Пиковый уровень 97.7 %
Качество диапазона 100.0 %
CRC теста C5CEE628
CRC копии C5CEE628
Копирование... OK

Ошибок не произошло


AccurateRip: сводка

Трек 1 нет в базе данных
Трек 2 нет в базе данных
Трек 3 нет в базе данных
Трек 4 нет в базе данных
Трек 5 нет в базе данных
Трек 6 нет в базе данных
Трек 7 нет в базе данных
Трек 8 нет в базе данных
Трек 9 нет в базе данных
Трек 10 нет в базе данных
Трек 11 нет в базе данных
Трек 12 нет в базе данных

Ни одного трека нет в базе AccurateRip

Конец отчёта

[CUETools log; Date: 2015.06.08. 15:53:35; Version: 2.1.5]
[CTDB TOCID: CUFwq1MED9t5Fw93e_6i7Bk7FGE-] found.
Track | CTDB Status
1 | (1/1) Accurately ripped
2 | (1/1) Accurately ripped
3 | (1/1) Accurately ripped
4 | (1/1) Accurately ripped
5 | (1/1) Accurately ripped
6 | (1/1) Accurately ripped
7 | (1/1) Accurately ripped
8 | (1/1) Accurately ripped
9 | (1/1) Accurately ripped
10 | (1/1) Accurately ripped
11 | (1/1) Accurately ripped
12 | (1/1) Accurately ripped
[AccurateRip ID: 001124e9-00a302c6-a2095f0c] found.
Track [ CRC | V2 ] Status
01 [91c9aa51|49f699fa] (0+1/1) Accurately ripped
02 [c264e40d|b132de53] (0+1/1) Accurately ripped
03 [2625348c|99b467e3] (0+1/1) Accurately ripped
04 [aa644ee4|afabbb4d] (0+1/1) Accurately ripped
05 [2d96944f|9820b005] (0+1/1) Accurately ripped
06 [fd2ffb03|1bcac9ce] (0+1/1) Accurately ripped
07 [61221a3e|e39b6604] (0+1/1) Accurately ripped
08 [05294976|af0d3aef] (0+1/1) Accurately ripped
09 4207704|481566cf (0+1/1) Accurately ripped
10 [44c8cac0|3b1dd555] (0+1/1) Accurately ripped
11 [05ee058b|db1f81d0] (0+1/1) Accurately ripped
12 [d50af9c8|850dbbf7] (0+1/1) Accurately ripped

Track Peak [ CRC32 ] [W/O NULL]
-- 97,7 [C5CEE628] [9937156C]
01 97,7 E3CA66B [F080EF9D]
02 97,7 [012F8F0D] DEDAB4F
03 97,7 [FEDD0DCB] [2AF74ABF]
04 97,7 [88A3AD1F] [551542B9]
05 97,7 [292FF83D] [6429D5D0]
06 97,7 [56E23708] [4B73FF9A]
07 97,7 [14BF1221] [68CE61F2]
08 97,7 [D6EAFB7B] 04E70BC
09 97,7 [4C5840A6] [C95AAD96]
10 97,7 [3573CA58] [6E77428C]
11 97,7 [FE51C71F] [10F8733F]
12 97,7 BE00AED [AFFDBDC8]

Thx to kurok79
DOWNLOAD LINKS
Buy Premium From My Links To Get Resumable Support & Max Speed & To Support Me


Links are Interchangeable - No Password - Single Extraction
Direct Download

Tags: Rollers, Elevator

The Rollers - Elevator (1979) Download via Hotfile Rapidshare Fileserve Megaupload & FileSonic, The Rollers - Elevator (1979) free torrent downloads included crack, serial, keygen.The Rollers - Elevator (1979) Fast Download via Rapidshare Hotfile Fileserve Filesonic Megaupload, The Rollers - Elevator (1979) Torrents and Emule Download or anything related.
Leave a Comment
Your Name:
E-Mail:
Add Comments:

Enter Code: