James Last - Rolling Home (198_, Polydor # 835 974-2)

Download Now


James Last - Rolling Home (198_, Polydor # 835 974-2)
James Last - Rolling Home
EAC+LOG+CUE | FLAC: 300 MB | Full Artwork: 30 MB | 5% Recovery Info
Label/Cat#: Polydor # 835 974-2 | Country/Year: Germany 198_
Genre: Pop, Folk | Style: Easy Listening, Instrumental, Sailors Songs

""James Last is a German big band leader with a large fan base in Europe, although he has never had a comparable following in the United States. Last's trademark is arranging pop hits in a big-band style; his series of "party albums" is equally well-known. Over the course of his career, he has sold well over 50 million albums.""



James Last - Rolling Home (198_, Polydor # 835 974-2)



Exact Audio Copy V1.0 beta 3 from 29. August 2011

EAC extraction logfile from 5. September 2013, 12:40

James Last / Rolling Home

Used drive : PIONEER BD-RW BDR-206 Adapter: 0 ID: 2

Read mode : Secure
Utilize accurate stream : Yes
Defeat audio cache : Yes
Make use of C2 pointers : No

Read offset correction

: 667
Overread into Lead-In and Lead-Out : No
Fill up missing offset samples with silence : Yes
Delete leading and trailing silent blocks : No
Null samples used in CRC calculations : Yes
Used interface
: Native Win32 interface for Win NT & 2000

Used output format : User Defined Encoder
Selected bitrate : 1024 kBit/s
Quality : High
Add ID3 tag : Yes
Command line compressor : C:\Program Files\FLAC\flac.exe
Additional command line options : -5 -T "Artist=%artist%" -T "Title=%title%" -T "Album=%albumtitle%" -T "Date=%year%" -T "Tracknumber=%tracknr%" -T "Genre=%genre%" %source% -o %dest%

TOC of the extracted CD Track | Start | Length | Start sector | End sector
1 | 0:00.32 | 2:27.23 | 32 | 11079 2 | 2:27.55 | 3:00.65 | 11080 | 24644 3 | 5:28.45 | 3:23.35 | 24645 | 39904 4 | 8:52.05 | 3:57.20 | 39905 | 57699 5 | 12:49.25 | 2:26.62 | 57700 | 68711 6 | 15:16.12 | 3:49.68 | 68712 | 85954 7 | 19:06.05 | 3:48.72 | 85955 | 103126 8 | 22:55.02 | 3:06.55 | 103127 | 117131 9 | 26:01.57 | 3:54.38 | 117132 | 134719
10 | 29:56.20 | 2:08.27 | 134720 | 144346
11 | 32:04.47 | 2:38.38 | 144347 | 156234
12 | 34:43.10 | 5:00.47 | 156235 | 178781
13 | 39:43.57 | 2:22.10 | 178782 | 189441
14 | 42:05.67 | 2:28.35 | 189442 | 200576
15 | 44:34.27 | 3:36.65 | 200577 | 216841
16 | 48:11.17 | 3:30.28 | 216842 | 232619

Range status and errors

Selected range Filename F:\=== VINYL RIPS ===\=== EAC===\X FRESH RIP\James Last - Rolling Home.wav Peak level 99.5 %
Extraction speed 7.0 X
Range quality 100.0 %
Test CRC 7CC40032
Copy CRC 7CC40032
Copy OK

No errors occurred


AccurateRip summary

Track 1 accurately ripped (confidence 5) [270751FD] (AR v1)
Track 2 accurately ripped (confidence 5) [949BCF54] (AR v1)
Track 3 accurately ripped (confidence 5) [AB7954B3] (AR v1)
Track 4 accurately ripped (confidence 5) [A67F7AB3] (AR v1)
Track 5 accurately ripped (confidence 5) [5649B3B9] (AR v1)
Track 6 accurately ripped (confidence 5) [91594BE1] (AR v1)
Track 7 accurately ripped (confidence 5) [4FA9EB49] (AR v1)
Track 8 accurately ripped (confidence 5) [57965E8E] (AR v1)
Track 9 accurately ripped (confidence 5) [6AD8EEB0] (AR v1)
Track 10 accurately ripped (confidence 5) [8594299C] (AR v1)
Track 11 accurately ripped (confidence 5) [54C1A7ED] (AR v1)
Track 12 accurately ripped (confidence 5) [2BA4C574] (AR v1)
Track 13 accurately ripped (confidence 5) [57211B5F] (AR v1)
Track 14 accurately ripped (confidence 5) [A0C0A016] (AR v1)
Track 15 accurately ripped (confidence 5) [3A484513] (AR v1)
Track 16 accurately ripped (confidence 5) [7DEC2E71] (AR v1)

All tracks accurately ripped

End of status report

---- CUETools DB Plugin V2.1.3

[CTDB TOCID: dYGwLXX5nIi7TTLAZxKP0Sapn5E-] disk not present in database, Submit result: discs with pregaps not supported in this protocol version

==== Log checksum 37243200B7E7BE05A7ACCB283203A962217A1AB88D23EDB8F40888A1C11680C8 ====

foobar2000 1.1.14a / Dynamic Range Meter 1.1.1
log date: 2013-09-07 22:06:31

------
Analyzed: James Last / Rolling Home
------

DR Peak RMS Duration Track
------
DR14 -1.56 dB -18.09 dB 2:27 01-Eine Seefahrt, die ist lustig
DR10 -3.30 dB -16.01 dB 3:01 02-Wo die Nordseewellen
DR12 -2.81 dB -17.77 dB 3:23 03-Kleine Möwe flieg nach Helgoland
DR13 -1.67 dB -17.93 dB 3:57 04-La Mer
DR14 -1.25 dB -17.41 dB 2:27 05-Heut´geht´s an Bord
DR12 -2.46 dB -16.88 dB 3:50 06-Aloha Oé
DR12 -2.75 dB -16.95 dB 3:49 07-Helgoland
DR14 -2.10 dB -19.06 dB 3:07 08-La Paloma
DR12 -2.67 dB -17.69 dB 3:55 09-Biscaya
DR15 -0.71 dB -17.91 dB 2:08 10-Das ist die Liebe der Matrosen
DR13 -1.08 dB -17.63 dB 2:39 11-Traumschiff Thema
DR12 -2.40 dB -17.51 dB 5:01 12-Golf von Catalina
DR12 -2.51 dB -17.50 dB 2:22 13-Einmal noch nach Bombay
DR14 -1.13 dB -17.85 dB 2:28 14-Sie hieß Mary Ann
DR12 -3.52 dB -20.46 dB 3:37 15-Winde weh´n / Rolling Home
DR14 -0.04 dB -17.86 dB 3:30 16-In der Heimat / Muss I den / Godd Night, Ladies
------

Number of tracks: 16
Official DR value: DR13

Samplerate: 44100 Hz
Channels: 2
Bits per sample: 16
Bitrate: 813 kbps
Codec: FLAC

CD Info:

James Last - Rolling Home

Label: Polydor
Catalog#: 835 974-2
Format: CD, Compilation
Country: Germany
Released: 198_, 1960'S, 1980'S
Genre: Pop, Folk
Style: Easy Listening, Instrumental, Sailors Songs

Tracklist:

1 Eine Seefahrt, die ist lustig 2:27
2 Wo die Nordseewellen 3:01
3 Kleine Möwe flieg nach Helgoland 3:23
4 La Mer 3:57
5 Heut´geht´s an Bord 2:27
6 Aloha Oé 3:50
7 Helgoland 3:49
8 La Paloma 3:07
9 Biscaya 3:55
10 Das ist die Liebe der Matrosen 2:08
11 Traumschiff Thema 2:39
12 Golf von Catalina 5:01
13 Einmal noch nach Bombay 2:22
14 Sie hieß Mary Ann 2:28
15 Winde weh´n / Rolling Home 3:37
16 In der Heimat / Muss I den / Godd Night, Ladies 3:30

" Artist Biography by Stephen Thomas Erlewine

James Last is a German big band leader with a large fan base in Europe, although he has never had a comparable following in the United States. Last's trademark is arranging pop hits in a big-band style; his series of "party albums" is equally well-known. Over the course of his career, he has sold well over 50 million albums.

Last learned how to play piano as child, switching to bass as a teenager. He joined Hans-Gunther Oesterreich's Radio Bremen Dance Orchestra in 1946, when he was 17 years old. In 1948, he became the leader of the Becker-Last Ensemble, which performed for seven years. During that time, he was voted as the best bassist in the country by a German jazz poll for three consecutive years, from 1950-1952. After the disbandment of the Becker-Last Ensemble, he became the in-house arranger for Polydor Records, as well as for a number of European radio stations. For the next decade, he helped arrange hits for artists like Helmut Zacharias and Caterina Valente.

Last released his first album, Non-Stop Dancing, in 1965. The record of brief renditions of popular songs, all tied together by an insistent dance beat and joyous crowd noises. It was a hit and helped make him a major European star. Over the next two decades, Last released over 50 records, including several more volumes of Non-Stop Dancing. On these records, he varied his formula by adding different songs from different countries and genres, as well as guest performers like Richard Clayderman and Astrud Gilberto.

Though his concerts and albums were consistently successful -- especially in England, where he had 52 hit albums between 1967-1986, which made him second to Elvis Presley in terms of number of charting records -- he only had one hit single with "The Seduction," the theme from American Gigolo (1980). ~allmusicguide"



James Last - Rolling Home (198_, Polydor # 835 974-2)


DOWNLOAD LINKS
Buy Premium From My Links To Get Resumable Support & Max Speed & To Support Me


Links are Interchangeable - No Password - Single Extraction
Direct Download

Tags: Rolling, Polydor

James Last - Rolling Home (198_, Polydor # 835 974-2) Download via Hotfile Rapidshare Fileserve Megaupload & FileSonic, James Last - Rolling Home (198_, Polydor # 835 974-2) free torrent downloads included crack, serial, keygen.James Last - Rolling Home (198_, Polydor # 835 974-2) Fast Download via Rapidshare Hotfile Fileserve Filesonic Megaupload, James Last - Rolling Home (198_, Polydor # 835 974-2) Torrents and Emule Download or anything related.
Leave a Comment
Your Name:
E-Mail:
Add Comments:

Enter Code: