Hot Tuna - Yellow Fever (1975) [Japanese Reissue, 2008]

Download Now

Hot Tuna - Yellow Fever (1975) [Japanese Reissue, 2008]

Hot Tuna - Yellow Fever (1975) [Japanese Reissue, 2008]
EAC Rip | FLAC: Tracks+Cue+Log | 294 Mb | MP3 CBR 320 kbps | 103 Mb | Scans | 26 Mb | Time: 39:50
Genre: Rock, Blues Rock, Hard Rock | Label: BMG Japan, Inc. | Cat.в„–: BVCM-35464

"Yellow Fever was the sixth album by the American blues rock band Hot Tuna, recorded and released in 1975 as Grunt BFL1-1238. The album was also released in Quadraphonic as Grunt BFD1-1238. Compared to their first two wholly blues-based albums (recorded live) and the following two studio albums, "Yellow Fever" (and it's immediate predecessor "America's Choice," both released in 1975) holds moments that surpass everything they ever recorded as Hot Tuna. The album rose to #97 on the Billboard charts."



Track Listing

01. Baby What You Want Me To Do (06:42)
02. Hot Jelly Roll Blues (04:21)
03. Free Rein (04:15)
04. Sunrise Dance With The Devil (04:30)
05. Song For The Fire Maiden (04:21)
06. Bar Room Crystal Ball (06:51)
07. Half/Time Saturation (04:48)
08. Surphase Tension (04:00)

Produced by Hot Tuna and Mallory Earl

The Band

* Jorma Kaukonen - vocals, guitars
* Jack Casady - bass
* Bob Steeler - drums

Additional personnel

* Nick Buck - synthesizer on "Bar Room Crystal Ball"
* John Sherman - 2nd guitar on "Baby What You Want Me to Do"

Notes

Jefferson Family Original Album Paper Sleeve Collection

2008 Japanese exclusive limited edition 8-track 24-Bit digitally remastered CD album, the 6th longplayer from Jefferson Airplane's Jack Casady and Jorma Kaukonen, originally released in 1975, presented in mini LP-style card sleeve + obi strip.

Exact Audio Copy V0.99 prebeta 4 from 23. January 2008

EAC extraction logfile from 1. October 2008, 10:41

Hot Tuna / Yellow Fever

Used drive : PIONEER DVD-RW DVR-112D Adapter: 0 ID: 1

Read mode : Secure
Utilize accurate stream : Yes
Defeat audio cache : Yes
Make use of C2 pointers : No

Read offset correction

: 48
Overread into Lead-In and Lead-Out : No
Fill up missing offset samples with silence : Yes
Delete leading and trailing silent blocks : No
Null samples used in CRC calculations : Yes
Used interface
: Installed external ASPI interface
Gap handling
: Appended to previous track

Used output format : Internal WAV Routines
Sample format : 44.100 Hz; 16 Bit; Stereo

TOC of the extracted CD Track | Start | Length | Start sector | End sector
1 | 0:00.00 | 6:42.02 | 0 | 30151 2 | 6:42.02 | 4:20.74 | 30152 | 49725 3 | 11:03.01 | 4:15.04 | 49726 | 68854 4 | 15:18.05 | 4:30.04 | 68855 | 89108 5 | 19:48.09 | 4:21.69 | 89109 | 108752 6 | 24:10.03 | 6:51.17 | 108753 | 139594 7 | 31:01.20 | 4:48.05 | 139595 | 161199 8 | 35:49.25 | 4:00.20 | 161200 | 179219

Track 1 Filename P:\Hot Tuna\Yellow Fever\01 - Baby What You Want Me To Do.wav Pre-gap length 0:00:02.00 Peak level 100.0 %
Track quality 100.0 %
Test CRC 0D596D1C
Copy CRC 0D596D1C
Track not present in AccurateRip database
Copy OK

Track 2 Filename P:\Hot Tuna\Yellow Fever\02 - Hot Jelly Roll Blues.wav Peak level 100.0 %
Track quality 99.9 %
Test CRC A8C6A1B7
Copy CRC A8C6A1B7
Track not present in AccurateRip database
Copy OK

Track 3 Filename P:\Hot Tuna\Yellow Fever\03 - Free Rein.wav Peak level 100.0 %
Track quality 100.0 %
Test CRC 0058AA84
Copy CRC 0058AA84
Track not present in AccurateRip database
Copy OK

Track 4 Filename P:\Hot Tuna\Yellow Fever\04 - Sunrise Dance With the Devil.wav Pre-gap length 0:00:02.47 Peak level 100.0 %
Track quality 100.0 %
Test CRC 9A433A81
Copy CRC 9A433A81
Track not present in AccurateRip database
Copy OK

Track 5 Filename P:\Hot Tuna\Yellow Fever\05 - Song For the Fire Maiden.wav Pre-gap length 0:00:02.45 Peak level 100.0 %
Track quality 100.0 %
Test CRC 393114EB
Copy CRC 393114EB
Track not present in AccurateRip database
Copy OK

Track 6 Filename P:\Hot Tuna\Yellow Fever\06 - Bar Room Crystal Ball.wav Pre-gap length 0:00:05.30 Peak level 100.0 %
Track quality 100.0 %
Test CRC 5606438B
Copy CRC 5606438B
Track not present in AccurateRip database
Copy OK

Track 7 Filename P:\Hot Tuna\Yellow Fever\07 - Half-Time Saturation.wav Pre-gap length 0:00:01.31 Peak level 100.0 %
Track quality 100.0 %
Test CRC 1D2BC75C
Copy CRC 1D2BC75C
Track not present in AccurateRip database
Copy OK

Track 8 Filename P:\Hot Tuna\Yellow Fever\08 - Surphase Tension.wav Pre-gap length 0:00:03.44 Peak level 100.0 %
Track quality 100.0 %
Test CRC DF286584
Copy CRC DF286584
Track not present in AccurateRip database
Copy OK

None of the tracks are present in the AccurateRip database

No errors occurred

End of status report

Many thanks to the original uploader: vmsn
DOWNLOAD LINKS
Buy Premium From My Links To Get Resumable Support & Max Speed & To Support Me


Links are Interchangeable - No Password - Single Extraction
Direct Download

Tags: Yellow, Japanese, Reissue

Hot Tuna - Yellow Fever (1975) [Japanese Reissue, 2008] Download via Hotfile Rapidshare Fileserve Megaupload & FileSonic, Hot Tuna - Yellow Fever (1975) [Japanese Reissue, 2008] free torrent downloads included crack, serial, keygen.Hot Tuna - Yellow Fever (1975) [Japanese Reissue, 2008] Fast Download via Rapidshare Hotfile Fileserve Filesonic Megaupload, Hot Tuna - Yellow Fever (1975) [Japanese Reissue, 2008] Torrents and Emule Download or anything related.
Leave a Comment
Your Name:
E-Mail:
Add Comments:

Enter Code: