Luther Allison - Luther's Blues (1974) Expanded Remastered Reissue 2001

Download Now

Luther Allison - Luther's Blues (1974) Expanded Remastered Reissue 2001

Luther Allison - Luther's Blues (1974) Expanded Remastered Reissue 2001
EAC | FLAC | Image (Cue&Log) ~ 505 Mb (incl 5%) | Mp3 (CBR320) ~ 196 Mb (incl 5%) | Scans included
Genre: Chicago Blues, Modern Electric Blues | Label: Motown | # 440 013 409-2 | Time: 01:10:26

"The second of three Allison albums issued on Motown's Gordy subsidiary in the 1970s, Luther's Blues captures the guitarist's uncovered-wire sound in its full glory. The crescendo ending of "Let's Have a Little Talk," one of five Allison originals here, is more than another standard variation on crowd-pleasing clichés. It's an apocalyptic, blues-wailing roar, with Allison's pleading vocal at its core. Berry Gordy turns up in the composer credits for one tune, "Someday Pretty Baby," which, along with "Part Time Love," trawls the company's early raw-edged back catalog. Even the funk-flavored "K.T."--an attempted hit single?--fits the mood. The three bonus tracks on this exemplary remaster nearly double the original LP's length, with a raw version of Freddy King's "San-Ho-Zay" glowing alongside an alternate version of Allison's "Bloomington Closing" and a lengthy medley from the 1973 Ann Arbor Blues Festival."

"Luther's Blues is where Luther Allison began to come into his own, developing a fluid, gutsy style full of soulful string bending. There are still a few weak spots, but the album remains an effective slice of contemporary Chicago blues.

Review by Thom Owens, Allmusic.com
"




Tracklist:

01. Luther's Blues (06:22)
02. Someday Pretty Baby (02:42)
03. Easy Baby (05:18)
04. Part Time Love (02:46)
05. Now You Got It (03:41)
06. K.T. (03:09)
07. Let's Have A Little Talk (07:08)
08. Driving Wheel (05:37)
09. Into My Life (03:36)

Bonus Tracks:
10. San-Ho-Zay (05:23)
11. Bloomington Closing (05:29)
12. Medley: I'm Gonna Miss My Baby/Bad News Is Coming?/
The Thrill Is Gone (live at... (19:10)


Exact Audio Copy V0.99 prebeta 5 from 4. May 2009

Отчёт EAC об извлечении, выполненном 11. июня 2015, 18:06

Luther Allison / Luther's Blues

Дисковод: ASUS DRW-24F1ST a Adapter: 0 ID: 0

Режим чтения : Достоверность
Использование точного потока : Да
Отключение кэша аудио : Да
Использование указателей C2 : Нет

Коррекция смещения при чтении : 6
Способность читать области Lead-in и Lead-out : Нет
Заполнение пропущенных сэмплов тишиной : Да
Удаление блоков с тишиной в начале и конце : Нет
При вычислениях CRC использовались нулевые сэмплы : Да
Интерфейс : Встроенный Win32-интерфейс для Win NT/2000

Выходной формат : Пользовательский кодировщик
Выбранный битрейт : 768 kBit/s
Качество : Высокий
Добавление ID3-тэга : Нет
Утилита сжатия : D:\05. Other\01. Programmes\Exact Audio Copy\FLAC\FLAC.EXE
Дополнительные параметры : -6 -V -T "ARTIST=%a" -T "TITLE=%t" -T "ALBUM=%g" -T "DATE=%y" -T "TRACKNUMBER=%n" -T "GENRE=%m" -T "COMMENT=%e" %s -o %d

TOC извлечённого CD Трек | Старт | Длительность | Начальный сектор | Конечный сектор

1 | 0:00.00 | 6:22.62 | 0 | 28711
2 | 6:22.62 | 2:42.02 | 28712 | 40863
3 | 9:04.64 | 5:18.45 | 40864 | 64758
4 | 14:23.34 | 2:46.17 | 64759 | 77225
5 | 17:09.51 | 3:41.51 | 77226 | 93851
6 | 20:51.27 | 3:09.02 | 93852 | 108028
7 | 24:00.29 | 7:08.24 | 108029 | 140152
8 | 31:08.53 | 5:37.56 | 140153 | 165483
9 | 36:46.34 | 3:36.45 | 165484 | 181728
10 | 40:23.04 | 5:23.07 | 181729 | 205960
11 | 45:46.11 | 5:29.53 | 205961 | 230688
12 | 51:15.64 | 19:10.25 | 230689 | 316963

Характеристики диапазона извлечения и сообщения об ошибках

Выбранный диапазон Имя файла D:\Luter Allison - Luther's Blues (2001)\Luther Allison - Luther's Blues.wav Пиковый уровень 85.7 %
Качество диапазона 99.9 %
CRC теста C1E9AB12
CRC копии C1E9AB12
Копирование... OK

Ошибок не произошло


AccurateRip: сводка

Трек 1 точное извлечение (доверие 24) [05D492EC]
Трек 2 точное извлечение (доверие 24) [94B693C0]
Трек 3 точное извлечение (доверие 24) [40A09DA4]
Трек 4 точное извлечение (доверие 24) [001BA1B4]
Трек 5 точное извлечение (доверие 24) 00AA6D2
Трек 6 точное извлечение (доверие 24) [79F0E6F0]
Трек 7 точное извлечение (доверие 24) [E6E50336]
Трек 8 точное извлечение (доверие 24) [56799CC5]
Трек 9 точное извлечение (доверие 24) [03F27845]
Трек 10 точное извлечение (доверие 24) [07368EF3]
Трек 11 точное извлечение (доверие 24) [6DDAAF0C]
Трек 12 точное извлечение (доверие 23) [4D7E1B3E]

Все треки извлечены точно

Конец отчёта

foobar2000 1.2 / Dynamic Range Meter 1.1.1
log date: 2015-06-12 01:10:22

------
Analyzed: Luther Allison / Luther's Blues
------

DR Peak RMS Duration Track
------
DR9 -1.49 dB -12.46 dB 6:23 01-Luther's Blues
DR9 -1.45 dB -12.75 dB 2:42 02-Someday Pretty Baby
DR9 -2.44 dB -12.82 dB 5:19 03-Easy Baby
DR10 -1.60 dB -13.49 dB 2:46 04-Part Time Love
DR10 -1.44 dB -12.86 dB 3:42 05-Now You Got It
DR10 -1.39 dB -13.53 dB 3:09 06-K.T.
DR9 -1.33 dB -11.65 dB 7:08 07-Let's Have A Little Talk
DR10 -1.33 dB -13.53 dB 5:38 08-Driving Wheel
DR10 -1.36 dB -12.95 dB 3:37 09-Into My Life
DR10 -1.51 dB -12.38 dB 5:23 10-San-Ho-Zay
DR11 -1.51 dB -13.85 dB 5:30 11-Bloomington Closing
DR8 -2.90 dB -13.74 dB 19:10 12-Medley: I'm Gonna Miss My Baby/Bad News Is Coming/The Thrill Is Gone (live at...
------

Number of tracks: 12
Official DR value: DR10

Samplerate: 44100 Hz
Channels: 2
Bits per sample: 16
Bitrate: 905 kbps
Codec: FLAC

Luther Allison - Luther's Blues (1974) Expanded Remastered Reissue 2001

Luther Allison - Luther's Blues (1974) Expanded Remastered Reissue 2001

All thanks to original releaser - lukya


DOWNLOAD:
Buy Premium To Support Me & Get Resumable Support & Max Speed


Links are Interchangeable - No Password
Direct Download

Tags: Luther, Allison, Luther, Expanded, Remastered, Reissue

Luther Allison - Luther's Blues (1974) Expanded Remastered Reissue 2001 Download via Hotfile Rapidshare Fileserve Megaupload & FileSonic, Luther Allison - Luther's Blues (1974) Expanded Remastered Reissue 2001 free torrent downloads included crack, serial, keygen.Luther Allison - Luther's Blues (1974) Expanded Remastered Reissue 2001 Fast Download via Rapidshare Hotfile Fileserve Filesonic Megaupload, Luther Allison - Luther's Blues (1974) Expanded Remastered Reissue 2001 Torrents and Emule Download or anything related.
Leave a Comment
Your Name:
E-Mail:
Add Comments:

Enter Code: