Serious Black - As Daylight Breaks (2015) [Japanese Ed.]

Download Now

Serious Black - As Daylight Breaks (2015) [Japanese Ed.]

Serious Black - As Daylight Breaks (2015) [Japanese Ed.]
EAC Rip | FLAC: Image+Cue+Log | 495 Mb | MP3 CBR 320 kbps | 161 Mb | Scans | 58 Mb | Time: 01:02:54
Genre: Power Metal | Label: Spiritual Beast | Cat.№: IUCP-16213

"A new band - 6 members, 6 friends - all with huge experience and knowledge from many years in the business and being part of the most successful melodic metal bands: this is SERIOUS BLACK! The line-up consists of Roland Grapow (Masterplan, ex-Helloween), Thomen Stauch (ex-Blind Guardian), Mario Lochert (ex-Visions Of Atlantis), Dominik Sebastian (Edenbridge), Jan Vacik (ex-Dreamscape) and (last but not least) the golden voice of Urban Breed (ex-Tad Morose)."



Track Listing

01. I Seek No Other Life (03:13)
02. High And Low (03:40)
03. Sealing My Fate (04:30)
04. Temple Of The Sun (01:14)
05. Akhenaton (04:20)
06. My Mystic Mind (04:16)
07. Trail Of Murder (02:54)
08. As Daylight Breaks (04:31)
09. Someone Else's Life (Bonus track) (03:51)
10. Setting Fire To The Earth (04:23)
11. Older And Wiser (03:59)
12. Listen To The Storm (04:48)
13. Fly On (Bonus track) (05:32)
14. No Son Of Mine [Genesis cover] (Bonus track) (06:24)
15. I Show You My Heart (Bonus track for Japan) (05:11)

Produced by Serious Black

The Band

* Jan Vacik (D-Vision, Dreamscape) : keys & vocals
* Mario Lochert (Emergency Gate, Visions of Atlantis) : bass
* Urban breed (Project Arcadia, Bloodbound, Dark Empire, Pyramaze, Tad Morose, Trail of Murder) : vocals
* Thomen Stauch (Coldseed, Savage Circus, Blind Guardian, Heavenward, Iron Savior, Lucifer's Heritage, Stormrider) : drums
* Roland Grapow (Level 10, Masterplan, Roland Grapow, Helloween, Rampage) : guitars
* Dominik Sebastian (Edenbridge, Shadows' Grey, Thirdmoon, Mortus, Scargod) : guitars

Guest

Lukas Knoebl (Illuminata) : orchestration (4, 8)

Serious Black - As Daylight Breaks (2015) [Japanese Ed.]



Exact Audio Copy V1.0 beta 3 from 29. August 2011

EAC extraction logfile from 9. June 2015, 20:50

Serious Black / As Daylight Breaks (Japan)

Used drive : ATAPI iHAS122 W Adapter: 2 ID: 0

Read mode : Secure
Utilize accurate stream : Yes
Defeat audio cache : Yes
Make use of C2 pointers : No

Read offset correction

: 48
Overread into Lead-In and Lead-Out : No
Fill up missing offset samples with silence : Yes
Delete leading and trailing silent blocks : No
Null samples used in CRC calculations : Yes
Used interface
: Installed external ASPI interface

Used output format : User Defined Encoder
Selected bitrate : 1024 kBit/s
Quality : High
Add ID3 tag : No
Command line compressor : C:\Program Files\FLAC\flac.exe
Additional command line options : -V -8 -T "Date=%year%" -T "Genre=%genre%" -T"COMMENT=Ripped by Ilijan" -8 -V %source%

TOC of the extracted CD Track | Start | Length | Start sector | End sector
1 | 0:00.00 | 3:13.22 | 0 | 14496 2 | 3:13.22 | 3:40.07 | 14497 | 31003 3 | 6:53.29 | 4:30.44 | 31004 | 51297 4 | 11:23.73 | 1:14.22 | 51298 | 56869 5 | 12:38.20 | 4:20.48 | 56870 | 76417 6 | 16:58.68 | 4:16.60 | 76418 | 95677 7 | 21:15.53 | 2:54.29 | 95678 | 108756 8 | 24:10.07 | 4:31.61 | 108757 | 129142 9 | 28:41.68 | 3:51.70 | 129143 | 146537
10 | 32:33.63 | 4:23.58 | 146538 | 166320
11 | 36:57.46 | 3:59.37 | 166321 | 184282
12 | 40:57.08 | 4:48.49 | 184283 | 205931
13 | 45:45.57 | 5:32.22 | 205932 | 230853
14 | 51:18.04 | 6:24.03 | 230854 | 259656
15 | 57:42.07 | 5:11.02 | 259657 | 282983

Range status and errors

Selected range Filename D:\ИЛИЯН\Serious Black - As Daylight Breaks (Japan).wav Peak level 99.7 %
Extraction speed 4.1 X
Range quality 100.0 %
Test CRC 1A6FF162
Copy CRC 1A6FF162
Copy OK

No errors occurred


AccurateRip summary

Track 1 not present in database
Track 2 not present in database
Track 3 not present in database
Track 4 not present in database
Track 5 not present in database
Track 6 not present in database
Track 7 not present in database
Track 8 not present in database
Track 9 not present in database
Track 10 not present in database
Track 11 not present in database
Track 12 not present in database
Track 13 not present in database
Track 14 not present in database
Track 15 not present in database

None of the tracks are present in the AccurateRip database

End of status report

---- CUETools DB Plugin V2.1.3

[CTDB TOCID: BC1hHQNDHscZtmwB1Zcqu5Ya3JM-] disk not present in database, Submit result: BC1hHQNDHscZtmwB1Zcqu5Ya3JM- has been uploaded

==== Log checksum 0C1F973BA42ABC275E526D6C05ABF3FA0F6B82F95C9706EE2A24C38363A8D7D7 ====

Many thanks to the original uploader: Ilijan
DOWNLOAD LINKS
Buy Premium From My Links To Get Resumable Support & Max Speed & To Support Me


Links are Interchangeable - No Password - Single Extraction
Direct Download

Tags: Serious, Daylight, Breaks, Japanese

Serious Black - As Daylight Breaks (2015) [Japanese Ed.] Download via Hotfile Rapidshare Fileserve Megaupload & FileSonic, Serious Black - As Daylight Breaks (2015) [Japanese Ed.] free torrent downloads included crack, serial, keygen.Serious Black - As Daylight Breaks (2015) [Japanese Ed.] Fast Download via Rapidshare Hotfile Fileserve Filesonic Megaupload, Serious Black - As Daylight Breaks (2015) [Japanese Ed.] Torrents and Emule Download or anything related.
Leave a Comment
Your Name:
E-Mail:
Add Comments:

Enter Code: