Steeleye Span - Cogs, Wheels and Lovers (2009)

Download Now

Steeleye Span - Cogs, Wheels and Lovers (2009)

Steeleye Span - Cogs, Wheels and Lovers (2009)
Folk Rock | 1cd | EAC Rip | Flac + Cue + Log | covers
Park Records, PRKCD106 | rel: 2009 | 440Mb

`Cogs, Wheels and Lovers' is their 21st studio album in 40 years and the music is better than ever. No newly written material this time but only `Steeleye-interpretations' of classic Folk songs. It is the thing they do best and it was their original concept when they recorded their first album `Hark! The Village Wait' in 1969.
Maddy Prior is taking the lead on almost all track (Except on the beautiful `Two Constant Lovers', which is sung by Peter Knight). Maddy's voice has gained warmth over the years and it is a real joy to listen to her. Combined with Peter Knights unique violin playing, some very good percussion by Liam Genockey, bass guitar by Rick Kemp and some good guitar work by Ken Nicol, this has become a very good and harmonious album. There is not one track I do not like. My favourite track? Hard to say. I would go for `The Unquiet Grave' but that is mainly because I have loved this song for many, many years. I first heard it on the album Joan Baez/5, which was released in 1965. Steeleye's version of the song is brilliant.
Don't stop your CD player when you think the last track (Thornaby Woods) is ended. After a little more than a minute of silence (at 5:20 m) a 'hidden track' follows. It is a beautiful version of 'The Great Silkie of Sules Skerry'. Joan Baez sang it in 1961, on her second album (Then the title was simply `Silkie') and Maddy sang another version of this ballad on her solo CD `Ravenchild' in 1999. Here it is sung by Maddy, with only Peter on the violin. Wonderful! ~Progarchives

Track listing
01. Gallant Frigate Amphitrite (4:03)
02. Locks & Bolts (3:57)
03. Creeping Jane (4:02)
04. Just As The Tide (4:25)
05. Ranzo (2:48)
06. The Machiner's Song (2:42)
07. Our Captain Cried (3:26)
08. Two Constant Lovers (5:50)
09. Madam Will You Walk (3:36)
10. The Unquiet Grave (4:44)
11. Thornaby Woods (11:10)
~ (50:43)

Personnel
- Maddy Prior - vocals
- Peter Knight - violin, vocals
- Rick Kemp - bass, vocals
- Ken Nicol - guitar, vocals
- Liam Genockey - drums, percussion

Отчет EAC об извлечении из 9. Декабрь 2009, 13:20 для CD
Steeleye Span / Cogs, Wheels & Lovers

Дисковод: PIONEER DVD-RW DVR-115D Adapter: 2 ID: 0
Режим чтения: Точный: C2 - нет, точный поток - да, отключение кэша - да
Коррекция смещения при чтении: 48
Экстрачтение Lead-in и Lead-out : Нет

Выходной формат: Внутренние WAV-операции 44.100 Гц; 16 бит; стерео

Другие параметры:
Заполнять пропущенные сэмплы тишиной : Да
Удалить блоки с тишиной в начале и конце : Нет
Установленный внешний ASPI-интерфейс

Статус диапазона и ошибки
Выбранный диапазон
Имя файла J:\Temp\Steeleye Span\Steeleye Span - Cogs, Wheels & Lovers - 2009\CDImage.wav Пиковый уровень 99.7 %
Качество диапазона 100.0 %
CRC F08E60C1
Копирование... OK

Ошибок не произошло

Конец отчета

[CUETools log; Date: 2015.06.09. 11:44:07; Version: 2.1.5]
[CTDB TOCID: M54KEmHlDesoTncEvZbqWxFWSLg-] found.
Track | CTDB Status
1 | (11/11) Accurately ripped
2 | (11/11) Accurately ripped
3 | (11/11) Accurately ripped
4 | (11/11) Accurately ripped
5 | (11/11) Accurately ripped
6 | (11/11) Accurately ripped
7 | (11/11) Accurately ripped
8 | (11/11) Accurately ripped
9 | (11/11) Accurately ripped
10 | (11/11) Accurately ripped
11 | (11/11) Accurately ripped
[AccurateRip ID: 0012162d-009e7059-970be30b] found.
Track [ CRC | V2 ] Status
01 [a467c544|08afbcd3] (02+00/32) Accurately ripped
02 [202c4c3d|95ad26e0] (02+00/32) Accurately ripped
03 [40c1434a|e17709bb] (02+00/32) Accurately ripped
04 [f9139236|b715ad2f] (02+00/32) Accurately ripped
05 [47078405|eb6e7900] (02+00/32) Accurately ripped
06 82e8da4|808140f7 (00+00/30) No match
07 [1ce35ceb|ab17fd86] (02+00/32) Accurately ripped
08 [c9a4a805|aa260c9d] (02+00/32) Accurately ripped
09 [1a3f3124|5ac9cafd] (00+00/30) No match
10 [2a1b2f3c|205f0e6d] (02+00/32) Accurately ripped
11 [e5cfba96|78ca70ad] (02+00/30) Accurately ripped
Offsetted by 48:
01 [5ffe7334] (16/32) Accurately ripped
02 [d4aba13d] (16/32) Accurately ripped
03 [3062687a] (16/32) Accurately ripped
04 [a435eab6] (16/32) Accurately ripped
05 [f3babc85] (16/32) Accurately ripped
06 [0f0954c4] (16/30) Accurately ripped
07 [42fead8b] (16/32) Accurately ripped
08 [edf52135] (16/32) Accurately ripped
09 [50b058e4] (16/30) Accurately ripped
10 [2237ee7c] (16/32) Accurately ripped
11 [929a678b] (14/30) Accurately ripped

Track Peak [ CRC32 ] [W/O NULL]
-- 99,7 [E9A552B2] [F08E60C1]
01 99,7 [C68EF7BB] [396CFC00]
02 99,7 [E87268B9] [F59A493C]
03 99,7 [89FF38EA] [EE056C0E]
04 99,7 [5C8DC1AE] [A01D695B]
05 99,7 42D6F22 [1FFBA5E4]
06 99,7 [483EC3DC] [8DF6DF93]
07 99,7 [FAD51CE5] [056366AE]
08 99,7 B0EE304 [F7E179BE]
09 99,7 [F1F99218] [921167E3]
10 99,7 [21C09F76] [10356281]
11 99,7 [DACA52F6] [D7767AD0]

Thx to Swamp Fox
DOWNLOAD LINKS
Buy Premium From My Links To Get Resumable Support & Max Speed & To Support Me


Links are Interchangeable - No Password - Single Extraction
Direct Download

Tags: Steeleye, Wheels, Lovers

Steeleye Span - Cogs, Wheels and Lovers (2009) Download via Hotfile Rapidshare Fileserve Megaupload & FileSonic, Steeleye Span - Cogs, Wheels and Lovers (2009) free torrent downloads included crack, serial, keygen.Steeleye Span - Cogs, Wheels and Lovers (2009) Fast Download via Rapidshare Hotfile Fileserve Filesonic Megaupload, Steeleye Span - Cogs, Wheels and Lovers (2009) Torrents and Emule Download or anything related.
Leave a Comment
Your Name:
E-Mail:
Add Comments:

Enter Code: