Kaizers Orchestra ‎- En Aften I Operaen (2013) [BDRip 1080p]

Download Now

Kaizers Orchestra ‎- En Aften I Operaen (2013) [BDRip 1080p]

Kaizers Orchestra ‎- En Aften I Operaen (2013)
BDRip 1080p | MKV | 9375 Kbps, 1920x1080 at 25.000 fps, AVC ([email protected]) | 7.6 GB
Audio: Norwegian 1509 kbps, 48 kHz, 24 bits, 6 channels, DTS | Length: 01:40:00
Genre: Art Rock, Alternative Rock, Experimental, Pop Rock | Nitroflare/Uploadable

"Kaizers Orchestra was a Norwegian alternative rock group that formed on 1 January 2000.
They are notable for being among the first non-black metal Norwegian bands or artists singing in their native language to become popular beyond Scandinavia. To other Norwegians, the band is instantly recognizable both because of their unique, unpredictable style, and because of vocalist Ottesen's distinctive Jæren dialect, shared by four of the other band members.

Kaizers Orchestra performing with conductor Erlend Skomvoll and the Oslo Filharmoniske Kor"


Kaizers Orchestra ‎- En Aften I Operaen (2013) [BDRip 1080p]


Tracklist
1 Aldri Vodka, Violeta
2 Svarte Katter & Flosshatter
3 Drom Videre, Violeta
4 Det Polaroide Liv
5 Siste Dans
6 Tvilling
7 Tusen Dråper Regn
8 Markedet Bestemmer
9 Hjerteknuser
10 I Ett Med Verden
11 Sju Bøtter Tåere Er Nok, Beatrice
12 Satan I Halsen
13 Perfekt I En Drøm
14 Forloveren
15 Begravelsespolka
16 Sekskløver

General
Unique ID
: 251662586997955041481820771951340957741 (0xBD547383081011BDB630F66986CC302D)
Complete name : C:\Users\ggu\Desktop\ggu\Kaizers.Orchestra.En.Aften.I.Operaen.2013.NORWEGiAN.1080p.MBLURAY.x264-DEV0\kaizers.orchestra.en.aften.i.operaen.2013.norwegian.mkv
Format
: Matroska
Format version : Version 4 / Version 2
File size
: 7.65 GiB
Duration
: 1h 40mn
Overall bit rate : 10.9 Mbps
Encoded date : UTC 2015-06-09 03:34:08
Writing application

: mkvmerge v7.9.0 ('Birds') 64bit
Writing library : libebml v1.3.1 + libmatroska v1.4.2
DURATION
: 01:40:36.982000000
NUMBER_OF_FRAMES : 565967
NUMBER_OF_BYTES : 1138725604
_STATISTICS_WRITING_APP : mkvmerge v7.9.0 ('Birds') 64bit
_STATISTICS_WRITING_DATE_UTC : 2015-06-09 03:34:08
_STATISTICS_TAGS : BPS DURATION NUMBER_OF_FRAMES NUMBER_OF_BYTES

Video
ID : 1
Format
: AVC
Format/Info
: Advanced Video Codec
Format profile : [email protected]
Format settings, CABAC : Yes
Format settings, ReFrames : 4 frames
Codec ID
: V_MPEG4/ISO/AVC
Duration
: 1h 40mn
Bit rate
: 9 375 Kbps
Width
: 1 920 pixels
Height
: 1 080 pixels
Display aspect ratio : 16:9
Frame rate mode : Constant
Frame rate
: 25.000 fps
Color space
: YUV
Chroma subsampling

: 4:2:0
Bit depth
: 8 bits
Scan type
: Progressive
Bits/(Pixel*Frame)

: 0.181
Stream size
: 6.44 GiB (84%)
Writing library : x264 core 146 r2538 121396c
Encoding settings: cabac=1 / ref=4 / deblock=1:-1:-1 / analyse=0x3:0x113 / me=umh / subme=8 / psy=1 / psy_rd=1.00:0.15 / mixed_ref=1 / me_range=16 / chroma_me=1 / trellis=1 / 8x8dct=1 / cqm=0 / deadzone=21,11 / fast_pskip=0 / chroma_qp_offset=-3 / threads=6 / lookahead_threads=1 / sliced_threads=0 / nr=0 / decimate=1 / interlaced=0 / bluray_compat=0 / constrained_intra=0 / bframes=3 / b_pyramid=2 / b_adapt=2 / b_bias=0 / direct=3 / weightb=1 / open_gop=0 / weightp=2 / keyint=250 / keyint_min=25 / scenecut=40 / intra_refresh=0 / rc_lookahead=50 / rc=2pass / mbtree=1 / bitrate=9375 / ratetol=1.0 / qcomp=0.60 / qpmin=0 / qpmax=69 / qpstep=4 / cplxblur=20.0 / qblur=0.5 / ip_ratio=1.40 / aq=1:1.00
Language
: English
Default
: Yes
Forced
: No
DURATION
: 01:40:36.960000000
NUMBER_OF_FRAMES : 150924
NUMBER_OF_BYTES : 7073642268
_STATISTICS_WRITING_APP : mkvmerge v7.9.0 ('Birds') 64bit
_STATISTICS_WRITING_DATE_UTC : 2015-06-09 03:34:08
_STATISTICS_TAGS : BPS DURATION NUMBER_OF_FRAMES NUMBER_OF_BYTES

Audio
ID : 2
Format
: DTS
Format/Info
: Digital Theater Systems
Mode
: 16
Format settings, Endianness : Big
Codec ID
: A_DTS
Duration
: 1h 40mn
Bit rate mode : Constant
Bit rate
: 1 509 Kbps
Channel(s)
: 6 channels
Channel positions: Front: L C R, Side: L R, LFE
Sampling rate : 48.0 KHz
Bit depth
: 24 bits
Compression mode : Lossy
Stream size
: 1.06 GiB (14%)
Language
: Norwegian
Default
: Yes
Forced
: No

Menu
00:00:00.000 : en:00:00:00.000
00:01:19.280 : en:00:01:19.280
00:09:22.200 : en:00:09:22.200
00:14:26.840 : en:00:14:26.840
00:18:29.000 : en:00:18:29.000
00:22:28.640 : en:00:22:28.640
00:26:17.400 : en:00:26:17.400
00:34:06.960 : en:00:34:06.960
00:38:00.680 : en:00:38:00.680
00:45:31.840 : en:00:45:31.840
00:48:59.880 : en:00:48:59.880
00:56:01.560 : en:00:56:01.560
01:00:18.400 : en:01:00:18.400
01:05:10.640 : en:01:05:10.640
01:13:54.320 : en:01:13:54.320
01:23:26.880 : en:01:23:26.880
01:31:35.760 : en:01:31:35.760
01:39:32.800 : en:01:39:32.800

Thanks to the original uploader








DOWNLOAD LINKS
Buy Premium From My Links To Get Resumable Support & Max Speed & To Support Me

Rapidgator.net:
http://rapidgator.net/file/c2ee968c28f643fa3ecc6dccd096911b/lt8dk.K.O.E.A.I.O.2013.BDR.1080p.part01.rar.html
http://rapidgator.net/file/07471f960e247a9da1e82c83f5f9daa0/lt8dk.K.O.E.A.I.O.2013.BDR.1080p.part02.rar.html
http://rapidgator.net/file/05f0deeaa6e186703b8bf7864b316cb7/lt8dk.K.O.E.A.I.O.2013.BDR.1080p.part03.rar.html
http://rapidgator.net/file/2cd70b39c2eb7b2b5123a3453c6e148e/lt8dk.K.O.E.A.I.O.2013.BDR.1080p.part04.rar.html
http://rapidgator.net/file/1138996ca5ecb85275fc4a27f4ef6df6/lt8dk.K.O.E.A.I.O.2013.BDR.1080p.part05.rar.html
http://rapidgator.net/file/6b29aa7cbb40b4939d9759d4bd3cd5b9/lt8dk.K.O.E.A.I.O.2013.BDR.1080p.part06.rar.html
http://rapidgator.net/file/bb64abf4c5955adfb2551de1388763da/lt8dk.K.O.E.A.I.O.2013.BDR.1080p.part07.rar.html
http://rapidgator.net/file/6ff2cfc1029b4f2d02d0658dfe35a4b0/lt8dk.K.O.E.A.I.O.2013.BDR.1080p.part08.rar.html
http://rapidgator.net/file/9669db24518c6f2f50e6d9d29da0e785/lt8dk.K.O.E.A.I.O.2013.BDR.1080p.part09.rar.html

Uploaded.net:
http://uploaded.net/file/iweulfoe/lt8dk.K.O.E.A.I.O.2013.BDR.1080p.part01.rar
http://uploaded.net/file/2rg5lzn1/lt8dk.K.O.E.A.I.O.2013.BDR.1080p.part02.rar
http://uploaded.net/file/96j3t1di/lt8dk.K.O.E.A.I.O.2013.BDR.1080p.part03.rar
http://uploaded.net/file/rzo1k9a8/lt8dk.K.O.E.A.I.O.2013.BDR.1080p.part04.rar
http://uploaded.net/file/v1z1x7b6/lt8dk.K.O.E.A.I.O.2013.BDR.1080p.part05.rar
http://uploaded.net/file/934zvt1j/lt8dk.K.O.E.A.I.O.2013.BDR.1080p.part06.rar
http://uploaded.net/file/h7w0tq3r/lt8dk.K.O.E.A.I.O.2013.BDR.1080p.part07.rar
http://uploaded.net/file/d98jd6ah/lt8dk.K.O.E.A.I.O.2013.BDR.1080p.part08.rar
http://uploaded.net/file/0csp8nmb/lt8dk.K.O.E.A.I.O.2013.BDR.1080p.part09.rar

Uploadable.ch:
http://www.uploadable.ch/file/6DGnNp4NdYaC/lt8dk.K.O.E.A.I.O.2013.BDR.1080p.part01.rar
http://www.uploadable.ch/file/qcDy4cSu24AA/lt8dk.K.O.E.A.I.O.2013.BDR.1080p.part02.rar
http://www.uploadable.ch/file/DmjDYq66cAMR/lt8dk.K.O.E.A.I.O.2013.BDR.1080p.part03.rar
http://www.uploadable.ch/file/CMRmRugMvhpt/lt8dk.K.O.E.A.I.O.2013.BDR.1080p.part04.rar
http://www.uploadable.ch/file/YDEQ6Cf43QJv/lt8dk.K.O.E.A.I.O.2013.BDR.1080p.part05.rar
http://www.uploadable.ch/file/QGfcPZ7aNtfe/lt8dk.K.O.E.A.I.O.2013.BDR.1080p.part06.rar
http://www.uploadable.ch/file/ErwQaDTUepsf/lt8dk.K.O.E.A.I.O.2013.BDR.1080p.part07.rar
http://www.uploadable.ch/file/52BwGpHKV6av/lt8dk.K.O.E.A.I.O.2013.BDR.1080p.part08.rar
http://www.uploadable.ch/file/q6DUGV7SEJsS/lt8dk.K.O.E.A.I.O.2013.BDR.1080p.part09.rar

Links are Interchangeable - No Password - Single Extraction
Direct Download

Tags: Kaizers, Orchestra, Operaen

Kaizers Orchestra ‎- En Aften I Operaen (2013) [BDRip 1080p] Download via Hotfile Rapidshare Fileserve Megaupload & FileSonic, Kaizers Orchestra ‎- En Aften I Operaen (2013) [BDRip 1080p] free torrent downloads included crack, serial, keygen.Kaizers Orchestra ‎- En Aften I Operaen (2013) [BDRip 1080p] Fast Download via Rapidshare Hotfile Fileserve Filesonic Megaupload, Kaizers Orchestra ‎- En Aften I Operaen (2013) [BDRip 1080p] Torrents and Emule Download or anything related.
Leave a Comment
Your Name:
E-Mail:
Add Comments:

Enter Code: