Trixter ‎- Hear! (1992)

Download Now

Trixter ‎- Hear! (1992)

Trixter ‎- Hear! (1992)
EAC Rip | FLAC (image & cue & log) | 506 MB | MP3 CBR 320 kbps | 229 MB | Scans | 55:34
Genre: Melodic Hard Rock / Glam Rock | Country: USA | Label: MCA Records | MCAD-10635

"Trixter is an American hard rock band from Paramus, New Jersey. The band achieved major success in the early 1990s but disbanded for several years as glam metal lost mainstream popularity.In September 1991, the Blood, Sweat & Beers tour was filmed for a pay-per-view special. October marked the end of the Trixter touring cycle for the debut album. In January 1992, Trixter began pre-production on their second album. Also during that time, the band renegotiated their record deal and were signed directly to MCA Records. Trixter chose James "Jimbo" Barton of Rush and Queensrÿche fame to produce. Recording for the new album, Hear!, was from April to August 1992."



Tracklist:

01. Road Of A Thousand Dreams
02. Damn Good
03. Rockin' Horse
04. Power Of Love
05. Runaway Train
06. Bloodrock
07. Waiting In The Line
08. Nobody's A Hero
09. Wild Is The Heart
10. What It Takes
11. As The Candle Burns
12. On The Road Again

Exact Audio Copy V0.99 prebeta 5 from 4. May 2009

EAC extraction logfile from 13. February 2010, 21:09

Trixter / Hear!

Used drive : PIONEER DVD-RW DVR-215D Adapter: 3 ID: 0

Read mode : Secure
Utilize accurate stream : Yes
Defeat audio cache : Yes
Make use of C2 pointers : No

Read offset correction : 48
Overread into Lead-In and Lead-Out : No
Fill up missing offset samples with silence : Yes
Delete leading and trailing silent blocks : No
Null samples used in CRC calculations : Yes
Used interface : Native Win32 interface for Win NT & 2000

Used output format : User Defined Encoder
Selected bitrate : 768 kBit/s
Quality : High
Add ID3 tag : No
Command line compressor : C:\Program Files\Exact Audio Copy\FLAC\FLAC.EXE
Additional command line options : -8 -V %s

TOC of the extracted CD

Track | Start | Length | Start sector | End sector

1 | 0:00.37 | 4:06.63 | 37 | 18549
2 | 4:07.25 | 4:52.55 | 18550 | 40504
3 | 9:00.05 | 4:11.72 | 40505 | 59401
4 | 13:12.02 | 3:51.70 | 59402 | 76796
5 | 17:03.72 | 5:23.28 | 76797 | 101049
6 | 22:27.25 | 4:35.32 | 101050 | 121706
7 | 27:02.57 | 5:05.33 | 121707 | 144614
8 | 32:08.15 | 4:26.07 | 144615 | 164571
9 | 36:34.22 | 4:16.55 | 164572 | 183826
10 | 40:51.02 | 5:03.35 | 183827 | 206586
11 | 45:54.37 | 5:55.50 | 206587 | 233261
12 | 51:50.12 | 3:44.60 | 233262 | 250121

Range status and errors

Selected range

Filename C:\lossless\my Rips\Trixter\Hear!\Trixter - Hear!.wav

Peak level 94.6 %
Range quality 99.9 %
Copy CRC 6C59E3D3
Copy OK

No errors occurred

AccurateRip summary

Track 1 cannot be verified as accurate (confidence 1) [A24B5C36], AccurateRip returned [245ABF61]
Track 2 cannot be verified as accurate (confidence 1) [DEE477B5], AccurateRip returned [46276FC0]
Track 3 cannot be verified as accurate (confidence 1) 48D48DC, AccurateRip returned 728C865
Track 4 cannot be verified as accurate (confidence 1) [FE191C57], AccurateRip returned [601E4C42]
Track 5 cannot be verified as accurate (confidence 1) [FDA4C600], AccurateRip returned [9B7DA235]
Track 6 cannot be verified as accurate (confidence 1) [AAC4265E], AccurateRip returned [629A0EA1]
Track 7 cannot be verified as accurate (confidence 1) [EE0736A5], AccurateRip returned [150CF80A]
Track 8 cannot be verified as accurate (confidence 1) [E98AF8D1], AccurateRip returned 4FBC438
Track 9 cannot be verified as accurate (confidence 1) [0C80E1F5], AccurateRip returned [38F5B775]
Track 10 cannot be verified as accurate (confidence 1) [FEA23DB5], AccurateRip returned 1F3FD87
Track 11 cannot be verified as accurate (confidence 1) [4CF63C13], AccurateRip returned [0F115647]
Track 12 cannot be verified as accurate (confidence 1) [F35C42C6], AccurateRip returned [6DF29080]

No tracks could be verified as accurate
You may have a different pressing from the one(s) in the database

End of status report

Personnel

Pete Loran - lead vocal
P.J. Farley - bass
Steve Brown - Guitars
Mark "Gus" Scott - drums

All thanks to boets

Trixter ‎- Hear! (1992)

Trixter ‎- Hear! (1992)


DOWNLOAD LINKS
Buy Premium From My Links To Get Resumable Support & Max Speed & To Support Me


Links are Interchangeable - No Password - Single Extraction
Direct Download

Tags: Trixter

Trixter ‎- Hear! (1992) Download via Hotfile Rapidshare Fileserve Megaupload & FileSonic, Trixter ‎- Hear! (1992) free torrent downloads included crack, serial, keygen.Trixter ‎- Hear! (1992) Fast Download via Rapidshare Hotfile Fileserve Filesonic Megaupload, Trixter ‎- Hear! (1992) Torrents and Emule Download or anything related.
Leave a Comment
Your Name:
E-Mail:
Add Comments:

Enter Code: