Adriano Celentano - ... Adriano (2013) [4CD Box Set]

Download Now

Adriano Celentano - ... Adriano (2013) [4CD Box Set]

Adriano Celentano - ... Adriano (2013)
4CD | EAC Rip | FLAC (Img) + Cue + Log ~ 1,93 Gb
Scans Included (JPG, 300 dpi) | RAR 5% Recovery
Pop, Rock | Clan Celentano #CLN 2114

"3 CDs with 45 songs in the extraordinary career of Adriano and 3 unpublished, written by Riccardo Cocciante and Pasquale Panella (Mai nella vita), Giuliano Sangiorgi (Io non ricordo (da quel giorno tu)) and Adriano Celentano itself (Ti fai del male). We find also fourth CD taken from two high profile concerts at the Arena in Verona last October, 18 years after his last live performance, which triggered the enthusiasm of the fans with record audiences for broadcast television, getting 20 million viewers for the two evenings..."

Official Website | Wiki | Discogs | All Music
***************


Track List CD1:

01. Io non ricordo (da quel giorno tu) [04:04]
02. Ti penso e cambia il mondo [04:28]
03. Io sono un uomo libero [05:49]
04. Il ragazzo della via Gluck [04:15]
05. PRISENCOLINENSINAINCIUSOL [05:19]
06. L'emozione non ha voce (Io non so parlar d'amore) [04:09]
07. Anna parte [03:24]
08. L'arcobaleno [03:31]
09. Una carezza in un pugno [02:58]
10. Apri il cuore [05:20]
11. Tir [04:29]
12. Hai bucato la mia vita [03:52]
13. Un po' artista un po' no [05:01]
14. Don't Play That Song (You Lied) [05:11]
15. Stringimi a te (Everything's All Right) [03:32]

Exact Audio Copy V1.0 beta 3 from 29. August 2011

EAC extraction logfile from 12. June 2015, 1:27

Adriano Celentano / ... Adriano CD1

Used drive : MATSHITABD-CMB UJ242AS Adapter: 0 ID: 1

Read mode : Secure
Utilize accurate stream : Yes
Defeat audio cache : Yes
Make use of C2 pointers : No

Read offset correction

: 103
Overread into Lead-In and Lead-Out : No
Fill up missing offset samples with silence : Yes
Delete leading and trailing silent blocks : No
Null samples used in CRC calculations : Yes
Used interface
: Installed external ASPI interface

Used output format : User Defined Encoder
Selected bitrate : 1024 kBit/s
Quality : High
Add ID3 tag : Yes
Command line compressor : C:\Program Files (x86)\Exact Audio Copy\Flac\flac.exe
Additional command line options : -V -8 -T "Date=%year%" -T "Genre=%genre%" %source%

TOC of the extracted CD Track | Start | Length | Start sector | End sector
1 | 0:00.00 | 4:03.66 | 0 | 18290 2 | 4:03.66 | 4:27.26 | 18291 | 38341 3 | 8:31.17 | 5:48.21 | 38342 | 64462 4 | 14:19.38 | 4:14.01 | 64463 | 83513 5 | 18:33.39 | 5:18.18 | 83514 | 107381 6 | 23:51.57 | 4:08.56 | 107382 | 126037 7 | 28:00.38 | 3:23.42 | 126038 | 141304 8 | 31:24.05 | 3:30.32 | 141305 | 157086 9 | 34:54.37 | 2:57.08 | 157087 | 170369
10 | 37:51.45 | 5:19.01 | 170370 | 194295
11 | 43:10.46 | 4:28.20 | 194296 | 214415
12 | 47:38.66 | 3:51.45 | 214416 | 231785
13 | 51:30.36 | 5:00.24 | 231786 | 254309
14 | 56:30.60 | 5:10.24 | 254310 | 277583
15 | 61:41.09 | 3:31.27 | 277584 | 293435

Range status and errors

Selected range Filename C:\EACrip\Adriano Celentano - ... Adriano CD1.wav Peak level 100.0 %
Extraction speed 4.4 X
Range quality 100.0 %
Test CRC D2958455
Copy CRC D2958455
Copy OK

No errors occurred


AccurateRip summary

Track 1 accurately ripped (confidence 4) [C061170C] (AR v2)
Track 2 accurately ripped (confidence 4) [7ED7F87D] (AR v2)
Track 3 accurately ripped (confidence 4) [2498A67B] (AR v2)
Track 4 accurately ripped (confidence 4) [5791B369] (AR v2)
Track 5 accurately ripped (confidence 4) [904F93C5] (AR v2)
Track 6 accurately ripped (confidence 4) [9E567F49] (AR v2)
Track 7 accurately ripped (confidence 4) [D456B2A0] (AR v2)
Track 8 accurately ripped (confidence 4) 52FB6DA (AR v2)
Track 9 accurately ripped (confidence 4) [FF001A60] (AR v2)
Track 10 accurately ripped (confidence 4) [5884D82D] (AR v2)
Track 11 accurately ripped (confidence 4) [42E88390] (AR v2)
Track 12 accurately ripped (confidence 4) [321963CD] (AR v2)
Track 13 accurately ripped (confidence 4) [86F9E13D] (AR v2)
Track 14 accurately ripped (confidence 4) [C7AD4F0E] (AR v2)
Track 15 accurately ripped (confidence 4) [93A2AB2E] (AR v2)

All tracks accurately ripped

End of status report

==== Log checksum 6B775712DA3B5365D880A89B1C0E6AE8D71C459886C5557576136D019A6571F3 ====

foobar2000 1.2.6 / Dynamic Range Meter 1.1.1
log date: 2015-06-13 16:19:44

------
Analyzed: Adriano Celentano / ... Adriano CD1
------

DR Peak RMS Duration Track
------
DR9 -0.01 dB -11.43 dB 4:04 01-Io non ricordo (da quel giorno tu)
DR6 -1.01 dB -8.18 dB 4:27 02-Ti penso e cambia il mondo
DR9 -0.10 dB -11.09 dB 5:48 03-Io sono un uomo libero
DR7 -1.30 dB -10.32 dB 4:14 04-Il ragazzo della via Gluck
DR9 -0.10 dB -9.84 dB 5:18 05-PRISENCOLINENSINAINCIUSOL
DR7 -0.01 dB -10.49 dB 4:09 06-L'emozione non ha voce (Io non so parlar d'amore)
DR9 0.00 dB -10.69 dB 3:24 07-Anna parte
DR9 -0.10 dB -10.75 dB 3:30 08-L'arcobaleno
DR8 0.00 dB -9.88 dB 2:57 09-Una carezza in un pugno
DR8 -0.10 dB -10.61 dB 5:19 10-Apri il cuore
DR6 0.00 dB -8.80 dB 4:28 11-Tir
DR7 -0.06 dB -10.26 dB 3:52 12-Hai bucato la mia vita
DR8 -0.10 dB -10.06 dB 5:00 13-Un po' artista un po' no
DR8 -0.11 dB -9.79 dB 5:10 14-Don't Play That Song (You Lied)
DR7 -0.10 dB -9.14 dB 3:31 15-Stringimi a te (Everything's All Right)
------

Number of tracks: 15
Official DR value: DR8

Samplerate: 44100 Hz
Channels: 2
Bits per sample: 16
Bitrate: 934 kbps
Codec: FLAC

[CUETools log; Date: 13.06.2015 16:15:57; Version: 2.1.5]
[CTDB TOCID: b8LxfYw5hiNdxceMC1NgkmgIqZg-] found.
Track | CTDB Status
1 | (5/5) Accurately ripped
2 | (5/5) Accurately ripped
3 | (5/5) Accurately ripped
4 | (5/5) Accurately ripped
5 | (5/5) Accurately ripped
6 | (5/5) Accurately ripped
7 | (5/5) Accurately ripped
8 | (5/5) Accurately ripped
9 | (5/5) Accurately ripped
10 | (5/5) Accurately ripped
11 | (5/5) Accurately ripped
12 | (5/5) Accurately ripped
13 | (5/5) Accurately ripped
14 | (5/5) Accurately ripped
15 | (5/5) Accurately ripped
[AccurateRip ID: 0024340c-019814f6-cd0f480f] found.
Track [ CRC | V2 ] Status
01 [455ed62d|c061170c] (0+4/4) Accurately ripped
02 [6cee7f8c|7ed7f87d] (0+4/4) Accurately ripped
03 [c194d1b2|2498a67b] (0+4/4) Accurately ripped
04 8062180|5791b369 (0+4/4) Accurately ripped
05 [2424f22c|904f93c5] (0+4/4) Accurately ripped
06 [ca8fd713|9e567f49] (0+4/4) Accurately ripped
07 [06bb1f02|d456b2a0] (0+4/4) Accurately ripped
08 [1885f220|b52fb6da] (0+4/4) Accurately ripped
09 [2cb0105f|ff001a60] (0+4/4) Accurately ripped
10 [aae152d1|5884d82d] (0+4/4) Accurately ripped
11 [eb9d8b12|42e88390] (0+4/4) Accurately ripped
12 [d6fcf77b|321963cd] (0+4/4) Accurately ripped
13 [1b89a18b|86f9e13d] (0+4/4) Accurately ripped
14 [62f4136b|c7ad4f0e] (0+4/4) Accurately ripped
15 [024a27d7|93a2ab2e] (0+4/4) Accurately ripped

Track Peak [ CRC32 ] [W/O NULL] [ LOG ]
-- 100,0 [D2958455] [4A746E72] CRC32
01 99,9 [4B2A6E15] [24F8555F]
02 89,0 [08C529EA] [5012164C]
03 98,8 [CDC8A89E] [320BDDF8]
04 86,1 [65959BE7] [E9168F17]
05 98,8 [0A9F5D93] [8A5D9396]
06 99,9 [5FDBB1D8] [3E2F7DD7]
07 100,0 [C12099DB] [4E4B1447]
08 98,8 [FCCD558A] [7C91D824]
09 99,9 [90F71D94] [5101F1A8]
10 98,8 [1B0D8D02] 0899EEC
11 99,9 [4286E292] [A7F7E5E3]
12 99,3 [1F394FA7] 39C1C45
13 98,8 [C4B75FF1] C5D05CF
14 98,7 [0CAF12ED] [356D78B3]
15 98,8 [E9B6DD19] [2517013E]

Track List CD2:

01. Mai nella vita [03:51]
02. Storia d'amore [04:54]
03. Forse eri meglio di lei [05:28]
04. Una festa sui prati [03:21]
05. Viola [03:48]
06. Non ti accorgevi di me [03:07]
07. Eravamo in 100.000 [02:28]
08. Torno sui miei passi [03:15]
09. E voi ballate [03:02]
10. La festa [03:42]
11. Lirica d'inverno [03:54]
12. La tana del re [02:12]
13. Un bimbo sul leone [03:38]
14. Grazie, prego, scusi [02:05]
15. La pelle [03:12]
16. L'uomo perfetto [04:59]
17. Stai lontana da me (Tower of strenght) [02:15]
18. Non succedera piu [04:18]

Exact Audio Copy V1.0 beta 3 from 29. August 2011

EAC extraction logfile from 12. June 2015, 2:08

Adriano Celentano / ...Adriano CD2

Used drive : MATSHITABD-CMB UJ242AS Adapter: 0 ID: 1

Read mode : Secure
Utilize accurate stream : Yes
Defeat audio cache : Yes
Make use of C2 pointers : No

Read offset correction

: 103
Overread into Lead-In and Lead-Out : No
Fill up missing offset samples with silence : Yes
Delete leading and trailing silent blocks : No
Null samples used in CRC calculations : Yes
Used interface
: Installed external ASPI interface

Used output format : User Defined Encoder
Selected bitrate : 1024 kBit/s
Quality : High
Add ID3 tag : Yes
Command line compressor : C:\Program Files (x86)\Exact Audio Copy\Flac\flac.exe
Additional command line options : -V -8 -T "Date=%year%" -T "Genre=%genre%" %source%

TOC of the extracted CD Track | Start | Length | Start sector | End sector
1 | 0:00.00 | 3:50.54 | 0 | 17303 2 | 3:50.54 | 4:54.00 | 17304 | 39353 3 | 8:44.54 | 5:27.18 | 39354 | 63896 4 | 14:11.72 | 3:20.47 | 63897 | 78943 5 | 17:32.44 | 3:47.04 | 78944 | 95972 6 | 21:19.48 | 3:06.69 | 95973 | 109991 7 | 24:26.42 | 2:27.22 | 109992 | 121038 8 | 26:53.64 | 3:14.09 | 121039 | 135597 9 | 30:07.73 | 3:01.73 | 135598 | 149245
10 | 33:09.71 | 3:41.20 | 149246 | 165840
11 | 36:51.16 | 3:53.13 | 165841 | 183328
12 | 40:44.29 | 2:11.62 | 183329 | 193215
13 | 42:56.16 | 3:37.56 | 193216 | 209546
14 | 46:33.72 | 2:04.54 | 209547 | 218900
15 | 48:38.51 | 3:11.05 | 218901 | 233230
16 | 51:49.56 | 4:58.66 | 233231 | 255646
17 | 56:48.47 | 2:14.26 | 255647 | 265722
18 | 59:02.73 | 4:17.23 | 265723 | 285020

Range status and errors

Selected range Filename C:\EACrip\Adriano Celentano - ...Adriano CD2.wav Peak level 100.0 %
Extraction speed 4.4 X
Range quality 100.0 %
Test CRC B8464A87
Copy CRC B8464A87
Copy OK

No errors occurred


AccurateRip summary

Track 1 accurately ripped (confidence 4) [A52D56C7] (AR v2)
Track 2 accurately ripped (confidence 4) E2E5C92 (AR v2)
Track 3 accurately ripped (confidence 4) [1B5B0344] (AR v2)
Track 4 accurately ripped (confidence 4) [C0BD4EE2] (AR v2)
Track 5 accurately ripped (confidence 4) [769B655D] (AR v2)
Track 6 accurately ripped (confidence 4) [F178A7CE] (AR v2)
Track 7 accurately ripped (confidence 4) [54DF6C0E] (AR v2)
Track 8 accurately ripped (confidence 4) [3E6739CF] (AR v2)
Track 9 accurately ripped (confidence 4) [E4303AA0] (AR v2)
Track 10 accurately ripped (confidence 4) [DB545F62] (AR v2)
Track 11 accurately ripped (confidence 4) [641E5773] (AR v2)
Track 12 accurately ripped (confidence 4) [6151CBB2] (AR v2)
Track 13 accurately ripped (confidence 4) [C8B6B035] (AR v2)
Track 14 accurately ripped (confidence 4) [D60CAE9A] (AR v2)
Track 15 accurately ripped (confidence 4) [73BD6B42] (AR v2)
Track 16 accurately ripped (confidence 4) [2BC1A694] (AR v2)
Track 17 accurately ripped (confidence 4) [873FF198] (AR v2)
Track 18 accurately ripped (confidence 4) [9AA367A0] (AR v2)

All tracks accurately ripped

End of status report

==== Log checksum E8E0AE48470F3FCBD214E298B073F7D86BA9B252BD40F1E128CC8FF440A8060B ====

foobar2000 1.2.6 / Dynamic Range Meter 1.1.1
log date: 2015-06-13 16:20:13

------
Analyzed: Adriano Celentano / ...Adriano CD2
------

DR Peak RMS Duration Track
------
DR8 -0.01 dB -10.05 dB 3:51 01-Mai nella vita
DR8 -0.51 dB -10.09 dB 4:54 02-Storia d'amore
DR6 -0.10 dB -9.82 dB 5:27 03-Forse eri meglio di lei
DR8 -0.01 dB -9.76 dB 3:21 04-Una festa sui prati
DR7 -0.10 dB -9.44 dB 3:47 05-Viola
DR5 0.00 dB -7.02 dB 3:07 06-Non ti accorgevi di me
DR7 -0.10 dB -9.39 dB 2:27 07-Eravamo in 100.000
DR7 -0.10 dB -7.76 dB 3:14 08-Torno sui miei passi
DR8 -0.10 dB -9.41 dB 3:02 09-E voi ballate
DR6 0.00 dB -7.71 dB 3:41 10-La festa
DR7 -0.10 dB -9.12 dB 3:53 11-Lirica d'inverno
DR8 -0.10 dB -9.85 dB 2:12 12-La tana del re
DR8 -0.10 dB -9.21 dB 3:38 13-Un bimbo sul leone
DR7 0.00 dB -9.01 dB 2:05 14-Grazie, prego, scusi
DR7 -0.10 dB -8.87 dB 3:11 15-La pelle
DR7 -0.10 dB -9.24 dB 4:59 16-L'uomo perfetto
DR7 -0.10 dB -8.99 dB 2:14 17-Stai lontana da me (Tower of strenght)
DR7 0.00 dB -9.53 dB 4:17 18-Non succedera piu
------

Number of tracks: 18
Official DR value: DR7

Samplerate: 44100 Hz
Channels: 2
Bits per sample: 16
Bitrate: 935 kbps
Codec: FLAC

[CUETools log; Date: 13.06.2015 16:16:31; Version: 2.1.5]
[CTDB TOCID: PvWh7kC9RJ64dmA99N8s6qsk3sQ-] found.
Track | CTDB Status
1 | (7/7) Accurately ripped
2 | (7/7) Accurately ripped
3 | (7/7) Accurately ripped
4 | (7/7) Accurately ripped
5 | (7/7) Accurately ripped
6 | (7/7) Accurately ripped
7 | (7/7) Accurately ripped
8 | (7/7) Accurately ripped
9 | (7/7) Accurately ripped
10 | (7/7) Accurately ripped
11 | (7/7) Accurately ripped
12 | (7/7) Accurately ripped
13 | (7/7) Accurately ripped
14 | (7/7) Accurately ripped
15 | (7/7) Accurately ripped
16 | (7/7) Accurately ripped
17 | (7/7) Accurately ripped
18 | (7/7) Accurately ripped
[AccurateRip ID: 002b0eab-02326d43-f20ed812] found.
Track [ CRC | V2 ] Status
01 550f9d6|a52d56c7 (0+4/4) Accurately ripped
02 [ea2242b5|be2e5c92] (0+4/4) Accurately ripped
03 214c8fd|1b5b0344 (0+4/4) Accurately ripped
04 [8487db72|c0bd4ee2] (0+4/4) Accurately ripped
05 [625fc878|769b655d] (0+4/4) Accurately ripped
06 [df30d459|f178a7ce] (0+4/4) Accurately ripped
07 [3fe8b264|54df6c0e] (0+4/4) Accurately ripped
08 [e0a97853|3e6739cf] (0+4/4) Accurately ripped
09 [69d5d856|e4303aa0] (0+4/4) Accurately ripped
10 [cc888cc8|db545f62] (0+4/4) Accurately ripped
11 [8e5d6519|641e5773] (0+4/4) Accurately ripped
12 [51e4ba3d|6151cbb2] (0+4/4) Accurately ripped
13 [da74ff50|c8b6b035] (0+4/4) Accurately ripped
14 [213095f3|d60cae9a] (0+4/4) Accurately ripped
15 [d25e2a14|73bd6b42] (0+4/4) Accurately ripped
16 [ad3cd6a4|2bc1a694] (0+4/4) Accurately ripped
17 [979ab9aa|873ff198] (0+4/4) Accurately ripped
18 [c98a89b4|9aa367a0] (0+4/4) Accurately ripped

Track Peak [ CRC32 ] [W/O NULL] [ LOG ]
-- 100,0 8464A87 [2E8355A1] CRC32
01 99,9 [0633679D] [9A8BC632]
02 94,3 [5C239544] [DBE4FBD4]
03 98,8 [0716B739] [843AA57B]
04 99,8 [529C3624] [3BC81165]
05 98,8 [7C62CA50] [D7D7ACD0]
06 100,0 [63787F08] [DA1F6B6F]
07 98,8 [272E8AF2] [DA390695]
08 98,8 [93DD1430] 8C9686D
09 98,8 [8C93D91A] [15AA6A6E]
10 99,9 [37A3EFEF] [3B1F4965]
11 98,8 [7566E710] A8F382E
12 98,8 [05508ADF] [2C219CB6]
13 98,8 D6E7F4B [84B154BD]
14 99,9 [03CA6CAE] [CA51070A]
15 98,8 [D25FA0E7] [99750DEA]
16 98,8 [E44091F6] [A340E1E1]
17 98,8 3146930 [8F572A83]
18 99,9 [FFC2AEFB] [3A552BF2]

Track List CD3:

01. Ti fai del male [05:57]
02. Una storia come questa [04:28]
03. La ballata di Pinocchio [06:47]
04. Se sapevo non crescevo [03:53]
05. Il tempo se ne va [03:50]
06. Ti avro' [04:29]
07. L'uomo nasce nudo [04:56]
08. Atmosfera [04:23]
09. Disc Jokey [05:28]
10. Solo da un quarto d'ora [05:44]
11. Azzurro [03:43]
12. Sotto le lenzuola [04:19]
13. Bellissima [03:49]
14. Ti lascio vivere [04:33]
15. Chiudi la porta [04:26]

Exact Audio Copy V1.0 beta 3 from 29. August 2011

EAC extraction logfile from 12. June 2015, 7:37

Adriano Celentano / ... Adriano CD3

Used drive : MATSHITABD-CMB UJ242AS Adapter: 0 ID: 1

Read mode : Secure
Utilize accurate stream : Yes
Defeat audio cache : Yes
Make use of C2 pointers : No

Read offset correction

: 103
Overread into Lead-In and Lead-Out : No
Fill up missing offset samples with silence : Yes
Delete leading and trailing silent blocks : No
Null samples used in CRC calculations : Yes
Used interface
: Installed external ASPI interface

Used output format : User Defined Encoder
Selected bitrate : 1024 kBit/s
Quality : High
Add ID3 tag : Yes
Command line compressor : C:\Program Files (x86)\Exact Audio Copy\Flac\flac.exe
Additional command line options : -V -8 -T "Date=%year%" -T "Genre=%genre%" %source%

TOC of the extracted CD Track | Start | Length | Start sector | End sector
1 | 0:00.00 | 5:56.16 | 0 | 26715 2 | 5:56.16 | 4:27.33 | 26716 | 46773 3 | 10:23.49 | 6:46.45 | 46774 | 77268 4 | 17:10.19 | 3:52.41 | 77269 | 94709 5 | 21:02.60 | 3:49.67 | 94710 | 111951 6 | 24:52.52 | 4:28.42 | 111952 | 132093 7 | 29:21.19 | 4:55.20 | 132094 | 154238 8 | 34:16.39 | 4:22.52 | 154239 | 173940 9 | 38:39.16 | 5:27.72 | 173941 | 198537
10 | 44:07.13 | 5:43.62 | 198538 | 224324
11 | 49:51.00 | 3:42.09 | 224325 | 240983
12 | 53:33.09 | 4:18.62 | 240984 | 260395
13 | 57:51.71 | 3:48.65 | 260396 | 277560
14 | 61:40.61 | 4:32.49 | 277561 | 298009
15 | 66:13.35 | 4:25.14 | 298010 | 317898

Range status and errors

Selected range Filename C:\EACrip\Adriano Celentano - ... Adriano CD3.wav Peak level 99.9 %
Extraction speed 4.4 X
Range quality 99.9 %
Test CRC 787CC036
Copy CRC 787CC036
Copy OK

No errors occurred


AccurateRip summary

Track 1 accurately ripped (confidence 4) [5B501634] (AR v2)
Track 2 accurately ripped (confidence 4) [553F56AC] (AR v2)
Track 3 accurately ripped (confidence 4) [F80C6EB8] (AR v2)
Track 4 accurately ripped (confidence 4) [84617E80] (AR v2)
Track 5 accurately ripped (confidence 4) [03F2C761] (AR v2)
Track 6 accurately ripped (confidence 4) [28B24F31] (AR v2)
Track 7 accurately ripped (confidence 4) [A95DA9A5] (AR v2)
Track 8 accurately ripped (confidence 4) [8B2DAF8E] (AR v2)
Track 9 accurately ripped (confidence 4) [5CD5ECB7] (AR v2)
Track 10 accurately ripped (confidence 4) [65403E21] (AR v2)
Track 11 accurately ripped (confidence 4) 22ECE17 (AR v2)
Track 12 accurately ripped (confidence 4) [14A77EF4] (AR v2)
Track 13 accurately ripped (confidence 4) [6B9467F0] (AR v2)
Track 14 accurately ripped (confidence 4) [231E6000] (AR v2)
Track 15 accurately ripped (confidence 4) [8B4CDE79] (AR v2)

All tracks accurately ripped

End of status report

==== Log checksum 40574279A05C61A212E57CF9863A5087749573F578C12B5A2B758728517C37BC ====

foobar2000 1.2.6 / Dynamic Range Meter 1.1.1
log date: 2015-06-13 16:20:48

------
Analyzed: Adriano Celentano / ... Adriano CD3
------

DR Peak RMS Duration Track
------
DR7 -0.01 dB -10.59 dB 5:56 01-Ti fai del male
DR8 -0.01 dB -10.28 dB 4:27 02-Una storia come questa
DR8 0.00 dB -10.92 dB 6:47 03-La ballata di Pinocchio
DR10 -0.10 dB -11.33 dB 3:53 04-Se sapevo non crescevo
DR9 -0.10 dB -11.32 dB 3:50 05-Il tempo se ne va
DR9 -0.10 dB -12.07 dB 4:29 06-Ti avro'
DR10 -0.20 dB -11.75 dB 4:55 07-L'uomo nasce nudo
DR10 -0.10 dB -12.56 dB 4:23 08-Atmosfera
DR8 -0.10 dB -10.86 dB 5:28 09-Disc Jokey
DR8 -0.01 dB -9.22 dB 5:44 10-Solo da un quarto d'ora
DR9 -1.31 dB -11.18 dB 3:42 11-Azzurro
DR8 -0.10 dB -10.28 dB 4:19 12-Sotto le lenzuola
DR9 -0.10 dB -10.81 dB 3:49 13-Bellissima
DR8 -0.01 dB -10.65 dB 4:33 14-Ti lascio vivere
DR9 -0.15 dB -11.26 dB 4:25 15-Chiudi la porta
------

Number of tracks: 15
Official DR value: DR9

Samplerate: 44100 Hz
Channels: 2
Bits per sample: 16
Bitrate: 890 kbps
Codec: FLAC

[CUETools log; Date: 13.06.2015 16:17:02; Version: 2.1.5]
[CTDB TOCID: fpcDuKG_sY4FYrgbC.jfyTmnZmk-] found.
Track | CTDB Status
1 | (6/6) Accurately ripped
2 | (6/6) Accurately ripped
3 | (6/6) Accurately ripped
4 | (6/6) Accurately ripped
5 | (6/6) Accurately ripped
6 | (6/6) Accurately ripped
7 | (6/6) Accurately ripped
8 | (6/6) Accurately ripped
9 | (6/6) Accurately ripped
10 | (6/6) Accurately ripped
11 | (6/6) Accurately ripped
12 | (6/6) Accurately ripped
13 | (6/6) Accurately ripped
14 | (6/6) Accurately ripped
15 | (6/6) Accurately ripped
[AccurateRip ID: 00283690-01c2cfef-d8108e0f] found.
Track [ CRC | V2 ] Status
01 [2b98e11c|5b501634] (0+4/4) Accurately ripped
02 [d7c5028c|553f56ac] (0+4/4) Accurately ripped
03 8b23140|f80c6eb8 (0+4/4) Accurately ripped
04 [9abe4453|84617e80] (0+4/4) Accurately ripped
05 ab8cb5e|03f2c761 (0+4/4) Accurately ripped
06 [5e18e059|28b24f31] (0+4/4) Accurately ripped
07 [c393b2ae|a95da9a5] (0+4/4) Accurately ripped
08 [f25152cc|8b2daf8e] (0+4/4) Accurately ripped
09 [ccdab3af|5cd5ecb7] (0+4/4) Accurately ripped
10 [e4cac9ff|65403e21] (0+4/4) Accurately ripped
11 [20f4070e|b22ece17] (0+4/4) Accurately ripped
12 [37fe600a|14a77ef4] (0+4/4) Accurately ripped
13 [36e90f5a|6b9467f0] (0+4/4) Accurately ripped
14 [0bfd3dcc|231e6000] (0+4/4) Accurately ripped
15 fe10e20|8b4cde79 (0+4/4) Accurately ripped

Track Peak [ CRC32 ] [W/O NULL] [ LOG ]
-- 99,9 [787CC036] [C055890F] CRC32
01 99,9 [9601553C] [3494DCB7]
02 99,9 [44F8740C] [863E9FA5]
03 99,9 [3CA827BF] [2B147CA8]
04 98,8 [630A4F75] [53015661]
05 98,8 [2ADEB4E3] [24628EF7]
06 98,8 [39C15DD0] [72C425FD]
07 97,7 [88258805] [191CD266]
08 98,9 [23C33B56] 849F84E
09 98,8 [1AAAE2C9] [8BA15DE3]
10 99,9 [A84AD4CF] [1940CF10]
11 86,0 [D92DF36B] [8CB8B4C4]
12 98,8 [0141B8CB] [2B557E4E]
13 98,8 [ABF4703C] [6527CD09]
14 99,9 [8E056D79] [01A24B2C]
15 98,2 3218BDB [6C3F1008]

Track List CD4 - Live Arena di Verona 2012:

01. Svalutation [04:37]
02. Si e Spento Il Sole [03:10]
03. La Cumbia Di Chi Cambia [04:34]
04. L'Emozione Non Ha Voce [04:23]
05. Preghero [03:41]
06. Mondo In Mi 7A [06:34]
07. Soli [04:12]
08. L'Arcobaleno [03:22]
09. Storia D'Amore [05:31]
10. Medley: Ringo [05:07]
11. Il Ragazzo Della Via Gluck [04:50]
12. Citta Senza Testa [06:04]
13. Una Carezza In Un Pugna [03:29]
14. Ti Penso E Cambia Il Mondo [04:24]
15. Azzurro [02:50]
16. Ready Teddy [02:26]
17. Prisencolinensinainciusol [03:32]

Exact Audio Copy V1.0 beta 3 from 29. August 2011

EAC extraction logfile from 12. June 2015, 8:43

Adriano Celentano / ... Adriano CD4 (Il Concerto Arena Di Verona)

Used drive : MATSHITABD-CMB UJ242AS Adapter: 0 ID: 1

Read mode : Secure
Utilize accurate stream : Yes
Defeat audio cache : Yes
Make use of C2 pointers : No

Read offset correction

: 103
Overread into Lead-In and Lead-Out : No
Fill up missing offset samples with silence : Yes
Delete leading and trailing silent blocks : No
Null samples used in CRC calculations : Yes
Used interface
: Installed external ASPI interface

Used output format : User Defined Encoder
Selected bitrate : 1024 kBit/s
Quality : High
Add ID3 tag : Yes
Command line compressor : C:\Program Files (x86)\Exact Audio Copy\Flac\flac.exe
Additional command line options : -V -8 -T "Date=%year%" -T "Genre=%genre%" %source%

TOC of the extracted CD Track | Start | Length | Start sector | End sector
1 | 0:00.00 | 4:36.14 | 0 | 20713 2 | 4:36.14 | 3:09.60 | 20714 | 34948 3 | 7:45.74 | 4:33.37 | 34949 | 55460 4 | 12:19.36 | 4:22.65 | 55461 | 75175 5 | 16:42.26 | 3:40.17 | 75176 | 91692 6 | 20:22.43 | 6:33.53 | 91693 | 121220 7 | 26:56.21 | 4:12.00 | 121221 | 140120 8 | 31:08.21 | 3:21.13 | 140121 | 155208 9 | 34:29.34 | 5:30.06 | 155209 | 179964
10 | 39:59.40 | 5:06.44 | 179965 | 202958
11 | 45:06.09 | 4:49.30 | 202959 | 224663
12 | 49:55.39 | 6:03.48 | 224664 | 251936
13 | 55:59.12 | 3:28.21 | 251937 | 267557
14 | 59:27.33 | 4:23.42 | 267558 | 287324
15 | 63:51.00 | 2:49.37 | 287325 | 300036
16 | 66:40.37 | 2:25.74 | 300037 | 310985
17 | 69:06.36 | 3:31.72 | 310986 | 326882

Range status and errors

Selected range Filename C:\EACrip\Adriano Celentano - ... Adriano CD4 (Il Concerto Arena Di Verona).wav Peak level 99.9 %
Extraction speed 4.5 X
Range quality 100.0 %
Test CRC 7ACE0460
Copy CRC 7ACE0460
Copy OK

No errors occurred


AccurateRip summary

Track 1 accurately ripped (confidence 11) [2939A5DF] (AR v2)
Track 2 accurately ripped (confidence 11) [589E3475] (AR v2)
Track 3 accurately ripped (confidence 11) [21FD51A5] (AR v2)
Track 4 accurately ripped (confidence 11) [67B07527] (AR v2)
Track 5 accurately ripped (confidence 11) [65BCA3A4] (AR v2)
Track 6 accurately ripped (confidence 11) [520EDD67] (AR v2)
Track 7 accurately ripped (confidence 11) [D69AAFD9] (AR v2)
Track 8 accurately ripped (confidence 11) [608C0BC4] (AR v2)
Track 9 accurately ripped (confidence 11) [7B115EC5] (AR v2)
Track 10 accurately ripped (confidence 11) [45C36ADC] (AR v2)
Track 11 accurately ripped (confidence 11) [C90EC24C] (AR v2)
Track 12 accurately ripped (confidence 11) [58E9E06A] (AR v2)
Track 13 accurately ripped (confidence 11) [8C7F15E6] (AR v2)
Track 14 accurately ripped (confidence 11) [7AD97B12] (AR v2)
Track 15 accurately ripped (confidence 11) [C6242D18] (AR v2)
Track 16 accurately ripped (confidence 10) [DDFF5E0C] (AR v2)
Track 17 accurately ripped (confidence 10) [D8297FDD] (AR v2)

All tracks accurately ripped

End of status report

==== Log checksum 3F1CD8AB49513E28220A8BD3AD2E0F1C9B6434DBF1DB0BB09F22E2E3F84C59F2 ====

foobar2000 1.2.6 / Dynamic Range Meter 1.1.1
log date: 2015-06-13 16:21:21

------
Analyzed: Adriano Celentano / ... Adriano CD4 (Il Concerto Arena Di Verona)
------

DR Peak RMS Duration Track
------
DR6 -0.01 dB -8.16 dB 4:36 01-Svalutation
DR6 -0.01 dB -7.71 dB 3:10 02-Si e Spento Il Sole
DR6 -0.01 dB -7.84 dB 4:33 03-La Cumbia Di Chi Cambia
DR6 -0.01 dB -8.54 dB 4:23 04-L'Emozione Non Ha Voce
DR6 -0.01 dB -7.37 dB 3:40 05-Preghero
DR6 -0.01 dB -7.84 dB 6:34 06-Mondo In Mi 7A
DR6 -0.01 dB -7.39 dB 4:12 07-Soli
DR7 -0.01 dB -8.23 dB 3:21 08-L'Arcobaleno
DR6 -0.01 dB -8.07 dB 5:30 09-Storia D'Amore
DR6 -0.01 dB -8.66 dB 5:07 10-Medley: Ringo
DR7 -0.01 dB -9.17 dB 4:49 11-Il Ragazzo Della Via Gluck
DR7 -0.01 dB -10.56 dB 6:04 12-Citta Senza Testa
DR6 -0.01 dB -7.04 dB 3:28 13-Una Carezza In Un Pugna
DR7 -0.01 dB -7.94 dB 4:24 14-Ti Penso E Cambia Il Mondo
DR6 -0.01 dB -6.70 dB 2:49 15-Azzurro
DR6 -0.01 dB -8.69 dB 2:26 16-Ready Teddy
DR6 -0.01 dB -7.35 dB 3:32 17-Prisencolinensinainciusol
------

Number of tracks: 17
Official DR value: DR6

Samplerate: 44100 Hz
Channels: 2
Bits per sample: 16
Bitrate: 1011 kbps
Codec: FLAC

[CUETools log; Date: 13.06.2015 16:17:31; Version: 2.1.5]
[CTDB TOCID: f3bSLu3ANjRnQLUBlAwpuVfn3Dg-] found.
Track | CTDB Status
1 | (23/23) Accurately ripped
2 | (22/23) Accurately ripped
3 | (22/23) Accurately ripped
4 | (22/23) Accurately ripped
5 | (23/23) Accurately ripped
6 | (22/23) Accurately ripped
7 | (22/23) Accurately ripped
8 | (22/23) Accurately ripped
9 | (22/23) Accurately ripped
10 | (23/23) Accurately ripped
11 | (23/23) Accurately ripped
12 | (23/23) Accurately ripped
13 | (22/23) Accurately ripped
14 | (22/23) Accurately ripped
15 | (22/23) Accurately ripped
16 | (23/23) Accurately ripped
17 | (23/23) Accurately ripped
[AccurateRip ID: 002e7dca-024e6015-e7110611] found.
Track [ CRC | V2 ] Status
01 [af0ff9d1|2939a5df] (00+11/11) Accurately ripped
02 [64dd5e74|589e3475] (00+11/11) Accurately ripped
03 [935bbe6c|21fd51a5] (00+11/11) Accurately ripped
04 [cfd1b597|67b07527] (00+11/11) Accurately ripped
05 03d1394|65bca3a4 (00+11/11) Accurately ripped
06 [d1d329e6|520edd67] (00+11/11) Accurately ripped
07 [71a03406|d69aafd9] (00+11/11) Accurately ripped
08 [c4ddb63b|608c0bc4] (00+11/11) Accurately ripped
09 [12445a07|7b115ec5] (00+11/11) Accurately ripped
10 [50891f28|45c36adc] (00+11/11) Accurately ripped
11 [83bea344|c90ec24c] (00+11/11) Accurately ripped
12 [66e89fa7|58e9e06a] (00+11/11) Accurately ripped
13 c892288|8c7f15e6 (00+11/11) Accurately ripped
14 [71cda952|7ad97b12] (00+11/11) Accurately ripped
15 [d264d33d|c6242d18] (00+11/11) Accurately ripped
16 [15b5152e|ddff5e0c] (00+10/10) Accurately ripped
17 [ed326182|d8297fdd] (00+10/10) Accurately ripped

Track Peak [ CRC32 ] [W/O NULL] [ LOG ]
-- 99,9 [7ACE0460] [AF79F5C4] CRC32
01 99,9 [8AC5B2A9] [34BA1FE0]
02 99,9 [8CF13B80] [F790D4D2]
03 99,9 [F22FFE0F] [88D68892]
04 99,9 [6A438668] [FFECC136]
05 99,9 [1786AB6E] [11E1CD8B]
06 99,9 [39275822] [6101766E]
07 99,9 AE81EAD [1EE56B7C]
08 99,9 [0EC67D56] [1CBBA069]
09 99,9 [A07C7CA6] [9D6ABFDA]
10 99,9 [05EBAB35] [0B440779]
11 99,9 [CA1A4AE5] [03D0BA4D]
12 99,9 [E82AD2D1] [5D151E43]
13 99,9 [E1A84963] [641C3781]
14 99,9 [A1B8AE7E] [11878C6E]
15 99,9 [9654EFFF] [26950553]
16 99,9 [3E63A45E] [7938AD2F]
17 99,9 [E021A23F] [0C5F63B0]

Adriano Celentano - ... Adriano (2013) [4CD Box Set]

All thanks go to rd


DOWNLOAD:
Buy Premium To Support Me & Get Resumable Support & Max Speed


Links are Interchangeable - No Password
Direct Download

Tags: Adriano, Celentano, Adriano

Adriano Celentano - ... Adriano (2013) [4CD Box Set] Download via Hotfile Rapidshare Fileserve Megaupload & FileSonic, Adriano Celentano - ... Adriano (2013) [4CD Box Set] free torrent downloads included crack, serial, keygen.Adriano Celentano - ... Adriano (2013) [4CD Box Set] Fast Download via Rapidshare Hotfile Fileserve Filesonic Megaupload, Adriano Celentano - ... Adriano (2013) [4CD Box Set] Torrents and Emule Download or anything related.
Leave a Comment
Your Name:
E-Mail:
Add Comments:

Enter Code: