Slash featuring Myles Kennedy and The Conspirators - Guitar Center Sessions (2012) [HDTV 1080i]

Download Now

Slash featuring Myles Kennedy and The Conspirators - Guitar Center Sessions (2012) [HDTV 1080i]

Slash featuring Myles Kennedy and The Conspirators - Guitar Center Sessions (2012)
HDTV 1080i | TS | MPEG, 1920x1080, 16:9, 16,6 Mbps, 29.970 fps | 6.69 GB
Audio: AC3, 384 Kbps, 48 kHz, 6 channels, Front: L C R, Side: L R, LFE | Length: 00:53:28
Hard Rock |

"Myles Kennedy and Slash quickly discovered they possessed profound creative chemistry that would spawn a wellspring of brilliant song ideas. "I'd jot down chords and concepts and play them for Myles," says Slash. "He would automatically adhere to whatever the track was and add these great melodies and lyrics. We started putting these basic arrangements together and the songs appeared.""


Slash featuring Myles Kennedy and The Conspirators - Guitar Center Sessions (2012) [HDTV 1080i]

Slash featuring Myles Kennedy and The Conspirators - Guitar Center Sessions (2012) [HDTV 1080i]


Tracklist
1. Intro
2. Beggars & Hangers-On
3. Interview. Part 1
4. Back From Cali
5. Interview. Part 2
6. Fall to Pieces
7. Interview. Part 3
8. Far and Away
9. Interview. Part 4
10. Starlight
11. Interview. Part 5
12. Not for Me
13. Interview. Part 6

General
ID : 1 (0x1)
Complete name : C:\Users\ggu\Desktop\ggu\Slash - 2012-03-19 - Guitar Center Sessions - HD - Pro-Shot.ts
Format
: MPEG-TS
File size
: 6.69 GiB
Duration
: 53mn 28s
Overall bit rate mode : Variable
Overall bit rate : 17.9 Mbps

Video
ID : 548 (0x224)
Menu ID
: 1 (0x1)
Format
: MPEG Video
Format version : Version 2
Format profile : [email protected]
Format settings, BVOP : Yes
Format settings, Matrix : Custom
Format settings, GOP : M=3, N=15
Format settings, picture structure : Frame
Codec ID
: 2
Duration
: 53mn 27s
Bit rate mode : Variable
Bit rate
: 16.6 Mbps
Maximum bit rate : 65.0 Mbps
Width
: 1 920 pixels
Height
: 1 080 pixels
Display aspect ratio : 16:9
Frame rate
: 29.970 fps
Color space
: YUV
Chroma subsampling

: 4:2:0
Bit depth
: 8 bits
Scan type
: Interlaced
Scan order
: Top Field First
Compression mode : Lossy
Bits/(Pixel*Frame)

: 0.268
Time code of first frame : 00:00:00;00
Time code source : Group of pictures header
GOP, Open/Closed : Open
Stream size
: 6.22 GiB (93%)
GOP, Open/Closed of first frame : Closed

Audio
ID : 547 (0x223)
Menu ID
: 1 (0x1)
Format
: AC-3
Format/Info
: Audio Coding 3
Mode extension : CM (complete main)
Format settings, Endianness : Big
Codec ID
: 129
Duration
: 53mn 27s
Bit rate mode : Constant
Bit rate
: 384 Kbps
Channel(s)
: 6 channels
Channel positions: Front: L C R, Side: L R, LFE
Sampling rate : 48.0 KHz
Bit depth
: 16 bits
Compression mode : Lossy
Delay relative to video : 3ms
Stream size
: 147 MiB (2%)
Language
: English

Thanks to the original uploader
DOWNLOAD:
Buy Premium From My Links To Get Resumable Support & Max Speed & To Support Me


Links are Interchangeable - No Password
Direct Download

Tags: featuring, Kennedy, Conspirators, Guitar, Center, Sessions

Slash featuring Myles Kennedy and The Conspirators - Guitar Center Sessions (2012) [HDTV 1080i] Download via Hotfile Rapidshare Fileserve Megaupload & FileSonic, Slash featuring Myles Kennedy and The Conspirators - Guitar Center Sessions (2012) [HDTV 1080i] free torrent downloads included crack, serial, keygen.Slash featuring Myles Kennedy and The Conspirators - Guitar Center Sessions (2012) [HDTV 1080i] Fast Download via Rapidshare Hotfile Fileserve Filesonic Megaupload, Slash featuring Myles Kennedy and The Conspirators - Guitar Center Sessions (2012) [HDTV 1080i] Torrents and Emule Download or anything related.
Leave a Comment
Your Name:
E-Mail:
Add Comments:

Enter Code: