Bobby Timmons - Sweet And Soulful Sounds + Born To Be Blue (1962-63) {2012 Riverside Remaster, Jazzplus Series}

Download Now


Bobby Timmons - Sweet And Soulful Sounds + Born To Be Blue (1962-63) {2012 Riverside Remaster, Jazzplus Series}
Bobby Timmons - Sweet And Soulful Sounds + Born To Be Blue (1962-63) {2012 Riverside Remaster, Jazzplus Series}
EAC rip (secure mode) | FLAC (tracks)+CUE+LOG -> 468 Mb | MP3 @320 -> 193 Mb
Full Artwork @ 300 dpi (jpg) -> 23 Mb | 5% repair rar
© 2012 Riverside / Universal | 06007 5340499
Jazz / Hard Bop / Soul Jazz / Piano

"Pure piano magic from Bobby Timmons - a pair of great albums from his years at Riverside Records! First up is Sweet & Soulful Sounds - a wonderful mellow trio session from Bobby - done with a spare, relaxed approach that's a nice contrast to the recordings he was making for Prestige around the same time - but which still has the same deep, soulful approach to the piano that makes those records so great! Half a dozen trio numbers with Sam Jones and Roy McCurdy are rounded out with two piano solos, "God Bless The Child" and "Spring Can Really Hang You Up The Most" - both of which present Bobby in an especially introspective mode, one you don't hear that often on record!"

Bobby Timmons - Sweet And Soulful Sounds + Born To Be Blue (1962-63) {2012 Riverside Remaster, Jazzplus Series}

"Remaining trio tunes include "The Sweetest Sounds", "Turn Left", "You'd Be So Nice To Come Home To", "Another Live One", "Alone Together", and "Why Was I Born". Born To Be Blue is one of Bobby Timmons' most obscure trio sessions from the early years - recorded at the tail end of the Riverside years, which is probably why the album disappeared so quickly! The set's in a similar format to some of Bobby's other records for Riverside - a trio set with either Sam Jones or Ron Carter on bass, and Connie Kay on drums - but it's different in that Bobby's a bit more introspective - "blue", if you will - working in less of the gutbucket soul jazz mode than before, and really hitting some lyrical magic on the keys! The album includes the original tunes "Know Not One", "Often Annie", and "The Sit In" - plus a great reading of Tom McIntosh's "With Malice Towards None"."


Bobby Timmons - Sweet And Soulful Sounds + Born To Be Blue (1962-63) {2012 Riverside Remaster, Jazzplus Series}


Personnel:
SWEET AND SOULFUL SOUNDS

BOBBY TIMMONS piano; SAM JONES bass; ROY McCURDY drums
Produced by ORRIN KEEPNEWS;
Originally released as Riverside 9422

BORN TO BE BLUE
BOBBY TIMMONS piano; SAM JONES, RON CARTER bass; CONNIE KAY drums
Produced by ORRIN KEEPNEWS
Originally released as Riverside 9468

tracklist:
01. The Sweetest Sounds
02. Turn Left
03. God Bless The Child
04. You'd Be So Nice To Come Home To
05. Another Live One
06. Alone Together
07. Spring Can Really Hang You Up The Most
08. Why Was I Born
09. Born To Be Blue
10. Malice Towards None
11. Sometimes I Feel Like A Motherless Child
12. Know Not One
13. The Sit-In
14. Namely You
15. Often Annie

Exact Audio Copy V1.0 beta 3 from 29. August 2011

EAC extraction logfile from 2. October 2013, 9:22

Bobby Timmons / Sweet And Soulful Sounds & Born To Be Blue

Used drive : ASUS DRW-24B3ST Adapter: 2 ID: 1

Read mode : Secure
Utilize accurate stream : Yes
Defeat audio cache : Yes
Make use of C2 pointers : No

Read offset correction

: 6
Overread into Lead-In and Lead-Out : No
Fill up missing offset samples with silence : Yes
Delete leading and trailing silent blocks : No
Null samples used in CRC calculations : Yes
Used interface
: Native Win32 interface for Win NT & 2000
Gap handling
: Appended to previous track

Used output format : User Defined Encoder
Selected bitrate : 128 kBit/s
Quality : High
Add ID3 tag : No
Command line compressor : C:\Program Files\Exact Audio Copy\Flac\flac.exe
Additional command line options : -V -8 -T "Genre=%genre%" -T "Artist=%artist%" -T "Title=%title%" -T "Album=%albumtitle%" -T "Date=%year%" -T "Tracknumber=%tracknr%" -T "Comment=%comment%" %source%

TOC of the extracted CD Track | Start | Length | Start sector | End sector
1 | 0:00.00 | 4:56.42 | 0 | 22241 2 | 4:56.42 | 5:27.48 | 22242 | 46814 3 | 10:24.15 | 5:02.44 | 46815 | 69508 4 | 15:26.59 | 4:37.17 | 69509 | 90300 5 | 20:04.01 | 4:12.02 | 90301 | 109202 6 | 24:16.03 | 6:01.22 | 109203 | 136299 7 | 30:17.25 | 3:40.02 | 136300 | 152801 8 | 33:57.27 | 5:53.38 | 152802 | 179314 9 | 39:50.65 | 4:23.71 | 179315 | 199110
10 | 44:14.61 | 4:56.53 | 199111 | 221363
11 | 49:11.39 | 4:40.74 | 221364 | 242437
12 | 53:52.38 | 7:53.09 | 242438 | 277921
13 | 61:45.47 | 4:15.61 | 277922 | 297107
14 | 66:01.33 | 6:01.04 | 297108 | 324186
15 | 72:02.37 | 9:12.68 | 324187 | 365654

Track 1 Filename G:\Complete\Bobby Timmons - Sweet And Soulful Sounds & Born To Be Blue (2012)\01. The Sweetest Sounds .wav Pre-gap length 0:00:02.00 Peak level 95.6 %
Extraction speed 4.1 X
Track quality 100.0 %
Test CRC 4749BE72
Copy CRC 4749BE72
Accurately ripped (confidence 4) [C0A9ADCD] (AR v2)
Copy OK

Track 2 Filename G:\Complete\Bobby Timmons - Sweet And Soulful Sounds & Born To Be Blue (2012)\02. Turn Left .wav Pre-gap length 0:00:00.50 Peak level 97.9 %
Extraction speed 3.9 X
Track quality 99.9 %
Test CRC E04B6903
Copy CRC E04B6903
Accurately ripped (confidence 4) [C28DC59B] (AR v2)
Copy OK

Track 3 Filename G:\Complete\Bobby Timmons - Sweet And Soulful Sounds & Born To Be Blue (2012)\03. God Bless The Child .wav Pre-gap length 0:00:00.68 Peak level 78.0 %
Extraction speed 5.0 X
Track quality 100.0 %
Test CRC E0FCD3AB
Copy CRC E0FCD3AB
Accurately ripped (confidence 4) [CF518442] (AR v2)
Copy OK

Track 4 Filename G:\Complete\Bobby Timmons - Sweet And Soulful Sounds & Born To Be Blue (2012)\04. You'd Be So Nice To Come Home To .wav Pre-gap length 0:00:01.08 Peak level 88.2 %
Extraction speed 4.3 X
Track quality 99.9 %
Test CRC 79C22162
Copy CRC 79C22162
Accurately ripped (confidence 4) [C6AAA140] (AR v2)
Copy OK

Track 5 Filename G:\Complete\Bobby Timmons - Sweet And Soulful Sounds & Born To Be Blue (2012)\05. Another Live One .wav Pre-gap length 0:00:00.71 Peak level 98.8 %
Extraction speed 5.4 X
Track quality 100.0 %
Test CRC FF8E6D86
Copy CRC FF8E6D86
Accurately ripped (confidence 4) [CAB73AE6] (AR v2)
Copy OK

Track 6 Filename G:\Complete\Bobby Timmons - Sweet And Soulful Sounds & Born To Be Blue (2012)\06. Alone Together .wav Pre-gap length 0:00:01.12 Peak level 98.5 %
Extraction speed 6.0 X
Track quality 100.0 %
Test CRC 2600E579
Copy CRC 2600E579
Accurately ripped (confidence 4) [E55369FE] (AR v2)
Copy OK

Track 7 Filename G:\Complete\Bobby Timmons - Sweet And Soulful Sounds & Born To Be Blue (2012)\07. Spring Can Really Hang You Up The Most .wav Pre-gap length 0:00:01.05 Peak level 89.2 %
Extraction speed 5.9 X
Track quality 100.0 %
Test CRC 785C0602
Copy CRC 785C0602
Accurately ripped (confidence 4) [43598368] (AR v2)
Copy OK

Track 8 Filename G:\Complete\Bobby Timmons - Sweet And Soulful Sounds & Born To Be Blue (2012)\08. Why Was I Born .wav Pre-gap length 0:00:01.15 Peak level 98.0 %
Extraction speed 6.5 X
Track quality 100.0 %
Test CRC 9F866376
Copy CRC 9F866376
Accurately ripped (confidence 4) [F91D6FAB] (AR v2)
Copy OK

Track 9 Filename G:\Complete\Bobby Timmons - Sweet And Soulful Sounds & Born To Be Blue (2012)\09. Born To Be Blue .wav Pre-gap length 0:00:03.13 Peak level 98.8 %
Extraction speed 5.4 X
Track quality 99.9 %
Test CRC 096F9E4C
Copy CRC 096F9E4C
Accurately ripped (confidence 4) [81F4CA94] (AR v2)
Copy OK

Track 10 Filename G:\Complete\Bobby Timmons - Sweet And Soulful Sounds & Born To Be Blue (2012)\10. Malice Towards None .wav Pre-gap length 0:00:00.70 Peak level 98.8 %
Extraction speed 7.0 X
Track quality 100.0 %
Test CRC 71EBAA87
Copy CRC 71EBAA87
Accurately ripped (confidence 4) [7813E905] (AR v2)
Copy OK

Track 11 Filename G:\Complete\Bobby Timmons - Sweet And Soulful Sounds & Born To Be Blue (2012)\11. Sometimes I Feel Like A Motherless Child .wav Pre-gap length 0:00:00.62 Peak level 98.8 %
Extraction speed 7.2 X
Track quality 100.0 %
Test CRC F147C912
Copy CRC F147C912
Accurately ripped (confidence 4) [57062B60] (AR v2)
Copy OK

Track 12 Filename G:\Complete\Bobby Timmons - Sweet And Soulful Sounds & Born To Be Blue (2012)\12. Know Not One .wav Pre-gap length 0:00:00.59 Peak level 98.8 %
Extraction speed 7.8 X
Track quality 100.0 %
Test CRC B92315B9
Copy CRC B92315B9
Accurately ripped (confidence 4) [26EF601A] (AR v2)
Copy OK

Track 13 Filename G:\Complete\Bobby Timmons - Sweet And Soulful Sounds & Born To Be Blue (2012)\13. The Sit-In .wav Pre-gap length 0:00:00.70 Peak level 98.8 %
Extraction speed 7.6 X
Track quality 100.0 %
Test CRC 4F04621F
Copy CRC 4F04621F
Accurately ripped (confidence 4) [04630048] (AR v2)
Copy OK

Track 14 Filename G:\Complete\Bobby Timmons - Sweet And Soulful Sounds & Born To Be Blue (2012)\14. Namely You .wav Pre-gap length 0:00:00.64 Peak level 98.8 %
Extraction speed 8.1 X
Track quality 100.0 %
Test CRC A0EF3A48
Copy CRC A0EF3A48
Accurately ripped (confidence 4) [A80AF559] (AR v2)
Copy OK

Track 15 Filename G:\Complete\Bobby Timmons - Sweet And Soulful Sounds & Born To Be Blue (2012)\15. Often Annie .wav Pre-gap length 0:00:00.72 Peak level 98.8 %
Extraction speed 8.7 X
Track quality 100.0 %
Test CRC E0FE6CDD
Copy CRC E0FE6CDD
Accurately ripped (confidence 4) [16A43862] (AR v2)
Copy OK

All tracks accurately ripped

No errors occurred

End of status report

==== Log checksum 59CC2E062A0A3418BE170EBF87481EF923A272D4826FB62A4ABA4B6A341365C1 ====

Bobby Timmons - Sweet And Soulful Sounds + Born To Be Blue (1962-63) {2012 Riverside Remaster, Jazzplus Series}

Bobby Timmons - Sweet And Soulful Sounds + Born To Be Blue (1962-63) {2012 Riverside Remaster, Jazzplus Series}

DOWNLOAD:
Buy Premium To Support Me & Get Resumable Support & Max Speed


Links are Interchangeable - No Password
Direct Download

Tags: Timmons, Soulful, Sounds, Riverside, Remaster, Jazzplus, Series

Bobby Timmons - Sweet And Soulful Sounds + Born To Be Blue (1962-63) {2012 Riverside Remaster, Jazzplus Series} Download via Hotfile Rapidshare Fileserve Megaupload & FileSonic, Bobby Timmons - Sweet And Soulful Sounds + Born To Be Blue (1962-63) {2012 Riverside Remaster, Jazzplus Series} free torrent downloads included crack, serial, keygen.Bobby Timmons - Sweet And Soulful Sounds + Born To Be Blue (1962-63) {2012 Riverside Remaster, Jazzplus Series} Fast Download via Rapidshare Hotfile Fileserve Filesonic Megaupload, Bobby Timmons - Sweet And Soulful Sounds + Born To Be Blue (1962-63) {2012 Riverside Remaster, Jazzplus Series} Torrents and Emule Download or anything related.
Leave a Comment
Your Name:
E-Mail:
Add Comments:

Enter Code: