ABBA - Six Albums on Discomate Discs (1976-1981) [1984, Japanese 1st press]

Download Now

ABBA - Six Albums on Discomate Discs (1976-1981) [1984, Japanese 1st press]

ABBA - Six Albums on Discomate Discs (1976-1981) [1984, Japanese 1st press]
Pop/Rock, Dance-Pop, Electronic, Disco | EAC Rip | FLAC, Img+CUE + LOG + Artwork-600-1200dpi (JPEG) | 04:14:01 h. | 1,94 Gb
Label: Discomate (Japan) | Released: 1984

"
They may have been released later than the first European Abba CDs but the group's earliest Japanese CD releases are much rarer and more sought after than even the coveted West German redface Polydor CDs. The six titles released by Abba's then Japanese licencee, Discomate, in early 1984 [The Visitors and Super Trouper have 1983 copyright dates] remained in circulation for a relatively brief period of time before being supplanted by Polydor's P33P series three years later. By this time, Discomate had either lost its Abba licence or gone bust, depending on what version of events you believe. In any case, the CDs seem to have sold relatively poorly and are rarely seen for sale within the collector's market - when they do, they generally fetch astronomical amounts by the standards of Abba CDs.
"

~ABBA~

ABBA - Six Albums on Discomate Discs (1976-1981) [1984, Japanese 1st press]

ABBA - Six Albums on Discomate Discs (1976-1981)

ABBA - Six Albums on Discomate Discs (1976-1981) [1984, Japanese 1st press]

ABBA - Arrival (1976)
Pop/Rock, Dance-Pop, Disco | EAC Rip | FLAC, Img+CUE + LOG + Artwork-600dpi (JPEG) | 33:30 Min | 230,90 Mb
Label: Discomate (Japan) | Released: 1984, June, 21

"
Arrival is the fourth studio album by the Swedish pop group ABBA. It was originally released in Sweden on 11 October 1976 by Polar Records. Recording sessions began in August 1975 and continued until September 1976 at Metronome and Glen studios in Stockholm, Sweden. It became ABBA's most successful album to date, producing three of their biggest hits: "Dancing Queen", "Money, Money, Money" and "Knowing Me, Knowing You". Upon its original 1976 release, "Fernando", released as a single earlier the same year, did not appear on Arrival, but it was included on the South African, Australian, and New Zealand versions. Arrival was the best-selling album of 1977 in the United Kingdom and was certified gold by the Recording Industry Association of America.
source: wikipedia

"


ABBA - Six Albums on Discomate Discs (1976-1981) [1984, Japanese 1st press]


Release of the album: 1976, October, 11 [LP Polar, Cat.# POLS 272, Sweden]
Release of this CD: 1984, June, 21 [CD Discomate (Japan), Cat.# CDP-104 / No Barcode]
℗ & © 1976 Polar Music International AB
Manufactured by Disco Co., Ltd. (Tokyo, Japan) ℗ & © 8406

Tracklist:

01. "When I Kissed the Teacher" (03:02)
(Andersson / Ulvaeus)
02. "Dancing Queen" (03:53)
(Anderson / Andersson / Ulvaeus)
03. "My Love, My Life" (03:54)
(Anderson / Andersson / Ulvaeus)
04. "Dum Dum Diddle" (02:55)
(Andersson / Ulvaeus)
05. "Knowing Me, Knowing You" (04:03)
(Anderson / Andersson / Ulvaeus)
06. "Money, Money, Money" (03:07)
(Andersson / Ulvaeus)
07. "That's Me" (03:18)
(Anderson / Andersson / Ulvaeus)
08. "Why Did It Have To Be Me?" (03:23)
(Andersson / Ulvaeus)
09. "Tiger" (02:56)
(Andersson / Ulvaeus)
10. "Arrival" (03:01)
(Andersson / Ulvaeus)

Exact Audio Copy V1.0 beta 3 from 29. August 2011

Отчёт EAC об извлечении, выполненном 20. мая 2014, 20:01

ABBA / Arrival

Дисковод: Optiarc DVD RW AD-7561A Adapter: 0 ID: 0

Режим чтения : Достоверность
Использование точного потока : Да
Отключение кэша аудио : Да
Использование указателей C2 : Нет

Коррекция смещения при чтении : 6
Способность читать области Lead-in и Lead-out : Нет
Заполнение пропущенных сэмплов тишиной : Да
Удаление блоков с тишиной в начале и конце : Нет
При вычислениях CRC использовались нулевые сэмплы : Да
Интерфейс : Установленный внешний ASPI-интерфейс

Выходной формат : Пользовательский кодировщик
Выбранный битрейт : 128 kBit/s
Качество : Высокий
Добавление ID3-тега : Нет
Утилита сжатия : C:\Program Files\Exact Audio Copy\FLAC\FLAC.EXE
Дополнительные параметры : -6 -V -T "ARTIST=%artist%" -T "TITLE=%title%" -T "ALBUM=%albumtitle%" -T "DATE=%year%" -T "TRACKNUMBER=%tracknr%" -T "GENRE=%genre%" -T "COMMENT=%comment%" -T "BAND=%albuminterpret%" -T "ALBUMARTIST=%albuminterpret%" -T "COMPOSER=%composer%" %haslyrics%--tag-from-file=LYRICS="%lyricsfile%"%haslyrics% -T "DISCNUMBER=%cdnumber%" -T "TOTALDISCS=%totalcds%" -T "TOTALTRACKS=%numtracks%" %hascover%--picture="%coverfile%"%hascover% %source% -o %dest%

TOC извлечённого CD Трек | Старт | Длительность | Начальный сектор | Конечный сектор

1 | 0:00.37 | 3:01.70 | 37 | 13681
2 | 3:02.32 | 3:52.55 | 13682 | 31136
3 | 6:55.12 | 3:53.45 | 31137 | 48656
4 | 10:48.57 | 2:54.53 | 48657 | 61759
5 | 13:43.35 | 4:02.72 | 61760 | 79981
6 | 17:46.32 | 3:06.60 | 79982 | 93991
7 | 20:53.17 | 3:17.50 | 93992 | 108816
8 | 24:10.67 | 3:23.00 | 108817 | 124041
9 | 27:33.67 | 2:55.70 | 124042 | 137236
10 | 30:29.62 | 3:01.33 | 137237 | 150844

Характеристики диапазона извлечения и сообщения об ошибках

Выбранный диапазон Имя файла C:\Users\SERGEY\Music\ABBA\Arrival - Discomate CDP - 104\ABBA - Arrival.wav Пиковый уровень 97.8 %
Скорость извлечения 4.1 X
Качество диапазона 99.9 %
CRC теста 2E21B25C
CRC копии 2E21B25C
Копирование... OK

Ошибок не произошло


AccurateRip: сводка

Трек 1 отсутствует в базе данных
Трек 2 отсутствует в базе данных
Трек 3 отсутствует в базе данных
Трек 4 отсутствует в базе данных
Трек 5 отсутствует в базе данных
Трек 6 отсутствует в базе данных
Трек 7 отсутствует в базе данных
Трек 8 отсутствует в базе данных
Трек 9 отсутствует в базе данных
Трек 10 отсутствует в базе данных

Ни одного трека нет в базе AccurateRip

Конец отчёта

---- CUETools DB Plugin V2.1.3

[CTDB TOCID: 8a936onWJIP_CjNtIbO6Md4U1Iw-] disk not present in database, Submit result: discs with pregaps not supported in this protocol version

foobar2000 1.3.7 / Dynamic Range Meter 1.1.1
log date: 2015-06-14 00:16:38

------
Analyzed: ABBA / Arrival
------

DR Peak RMS Duration Track
------
DR13 -2.99 dB -17.97 dB 3:02 01-When I Kissed The Teacher
DR12 -2.08 dB -16.97 dB 3:53 02-Dancing Queen
DR10 -4.18 dB -18.45 dB 3:54 03-My Love, My Life
DR14 -1.50 dB -18.12 dB 2:55 04-Dum Dum Diddle
DR13 -1.20 dB -17.06 dB 4:03 05-Knowing Me, Knowing You
DR14 -0.19 dB -18.13 dB 3:07 06-Money, Money, Money
DR13 -1.84 dB -17.75 dB 3:18 07-That's Me
DR13 -1.84 dB -17.46 dB 3:23 08-Why Did It Have To Be Me
DR13 -2.76 dB -17.35 dB 2:56 09-Tiger
DR10 -4.79 dB -17.74 dB 3:01 10-Arrival
------

Number of tracks: 10
Official DR value: DR12

Samplerate: 44100 Hz
Channels: 2
Bits per sample: 16
Bitrate: 856 kbps
Codec: FLAC

=

ABBA - Six Albums on Discomate Discs (1976-1981) [1984, Japanese 1st press]

ABBA - The Album (1977)
Pop/Rock, Dance-Pop, Disco | EAC Rip | FLAC, Img+CUE + LOG + Artwork-1200dpi (JPEG) | 40:10 Min | 316,70 Mb
Label: Discomate (Japan) | Released: 1984, June, 21

"
ABBA: The Album is the fifth studio album by the Swedish pop group ABBA. It was released in Scandinavia on 12 December 1977 through Polar Music, but due to the massive pre-orders the UK pressing plants were not able to press sufficient copies before Christmas 1977 and so it was not released in the UK until January 1978. The album was released in conjunction with ABBA: The Movie, with several of the songs featured in the film. The album contained two UK number-one singles, "Take a Chance on Me" and "The Name of the Game", as well as European hits "Eagle" and "Thank You for the Music".
source: wikipedia

"


ABBA - Six Albums on Discomate Discs (1976-1981) [1984, Japanese 1st press]


Release of the album: 1977, December, 12 [LP Polar, Cat.# POLS 282, Sweden]
Release of this CD: 1984, June, 21 [CD Discomate (Japan), Cat.# CDP-105 / No Barcode]
℗ & © 1977 Polar Music International AB
Manufactured by Disco Co., Ltd. (Tokyo, Japan) ℗ & © 8406

Tracklist:

01. "Eagle" (05:47)
(Andersson / Ulvaeus)
02. "Take A Chance On Me" (04:04)
(Andersson / Ulvaeus)
03. "One Man, One Woman" (04:33)
(Andersson / Ulvaeus)
04. "The Name Of The Game" (04:53)
(Anderson / Andersson / Ulvaeus)
05. "Move On" (04:42)
(Anderson / Andersson / Ulvaeus)
06. "Hole In Your Soul" (03:44)
(Andersson / Ulvaeus)
07. "The Girl With The Golden Hair" (3 Scenes From A Mini-Musical):
A. "Thank You For The Music" (03:50)
(Andersson / Ulvaeus)
B. "I Wonder (Departure)" (04:33)
(Anderson / Andersson / Ulvaeus)
C. "I'm A Marionette" (04:04)
(Andersson / Ulvaeus)

Exact Audio Copy V1.0 beta 3 from 29. August 2011

Отчёт EAC об извлечении, выполненном 3. сентября 2014, 19:11

ABBA / The Album

Дисковод: Optiarc DVD RW AD-7561A Adapter: 0 ID: 0

Режим чтения : Достоверность
Использование точного потока : Да
Отключение кэша аудио : Да
Использование указателей C2 : Нет

Коррекция смещения при чтении : 6
Способность читать области Lead-in и Lead-out : Нет
Заполнение пропущенных сэмплов тишиной : Да
Удаление блоков с тишиной в начале и конце : Нет
При вычислениях CRC использовались нулевые сэмплы : Да
Интерфейс : Установленный внешний ASPI-интерфейс

Выходной формат : Пользовательский кодировщик
Выбранный битрейт : 1024 kBit/s
Качество : Высокий
Добавление ID3-тега : Нет
Утилита сжатия : C:\Program Files\Exact Audio Copy\FLAC\FLAC.EXE
Дополнительные параметры : -6 -V -T "ARTIST=%artist%" -T "TITLE=%title%" -T "ALBUM=%albumtitle%" -T "DATE=%year%" -T "TRACKNUMBER=%tracknr%" -T "GENRE=%genre%" -T "COMMENT=%comment%" -T "BAND=%albuminterpret%" -T "ALBUMARTIST=%albuminterpret%" -T "COMPOSER=%composer%" %haslyrics%--tag-from-file=LYRICS="%lyricsfile%"%haslyrics% -T "DISCNUMBER=%cdnumber%" -T "TOTALDISCS=%totalcds%" -T "TOTALTRACKS=%numtracks%" %hascover%--picture="%coverfile%"%hascover% %source% -o %dest%

TOC извлечённого CD Трек | Старт | Длительность | Начальный сектор | Конечный сектор

1 | 0:00.37 | 5:46.64 | 37 | 26050
2 | 5:47.26 | 4:04.25 | 26051 | 44375
3 | 9:51.51 | 4:32.66 | 44376 | 64841
4 | 14:24.42 | 4:53.29 | 64842 | 86845
5 | 19:17.71 | 4:42.27 | 86846 | 108022
6 | 24:00.23 | 3:44.27 | 108023 | 124849
7 | 27:44.50 | 3:49.60 | 124850 | 142084
8 | 31:34.35 | 4:32.52 | 142085 | 162536
9 | 36:07.12 | 4:03.49 | 162537 | 180810

Характеристики диапазона извлечения и сообщения об ошибках

Выбранный диапазон Имя файла C:\Users\SERGEY\Music\ABBA\The Album - Discomate CDP 105\ABBA - The Album.wav Пиковый уровень 94.9 %
Скорость извлечения 4.4 X
Качество диапазона 100.0 %
CRC теста 2C162D02
CRC копии 2C162D02
Копирование... OK

Ошибок не произошло


AccurateRip: сводка

Трек 1 : извлечено точно (доверие 1) [F177E690] (AR v1)
Трек 2 : извлечено точно (доверие 1) [0DE31D73] (AR v1)
Трек 3 : извлечено точно (доверие 1) [E55852FE] (AR v1)
Трек 4 : извлечено точно (доверие 1) [3702DE99] (AR v1)
Трек 5 : извлечено точно (доверие 1) [3A32825C] (AR v1)
Трек 6 : извлечено точно (доверие 1) [83C52F4A] (AR v1)
Трек 7 : извлечено точно (доверие 1) [507FAE4A] (AR v1)
Трек 8 : извлечено точно (доверие 1) [8775616B] (AR v1)
Трек 9 : извлечено точно (доверие 1) [9D37A417] (AR v1)

Все треки извлечены точно

Конец отчёта

---- CUETools DB Plugin V2.1.3

[CTDB TOCID: a1fcmzU_x1iPcH0QDkRXkXQn.vU-] disk not present in database, Submit result: discs with pregaps not supported in this protocol version

foobar2000 1.3.7 / Dynamic Range Meter 1.1.1
log date: 2015-06-14 00:18:35

------
Analyzed: ABBA / The Album
------

DR Peak RMS Duration Track
------
DR13 -0.65 dB -15.74 dB 5:47 01-Eagle
DR14 -1.39 dB -16.93 dB 4:04 02-Take A Chance On Me
DR13 -2.01 dB -17.50 dB 4:33 03-One Man, One Woman
DR14 -0.45 dB -18.00 dB 4:53 04-The Name Of The Game
DR12 -1.60 dB -16.62 dB 4:42 05-Move On
DR12 -2.03 dB -15.62 dB 3:44 06-Hole In Your Soul
DR13 -2.83 dB -19.35 dB 3:50 07-Thank You For The Music
DR13 -2.32 dB -19.04 dB 4:33 08-I Wonder (Departure)
DR12 -1.24 dB -16.35 dB 4:04 09-I'm A Marionette
------

Number of tracks: 9
Official DR value: DR13

Samplerate: 44100 Hz
Channels: 2
Bits per sample: 16
Bitrate: 859 kbps
Codec: FLAC

=

ABBA - Six Albums on Discomate Discs (1976-1981) [1984, Japanese 1st press]

ABBA - Voulez-Vous (1979)
Pop/Rock, Dance-Pop, Disco | EAC Rip | FLAC, Img+CUE + LOG + Artwork-1200dpi (JPEG) | 42:10 Min | 335,07 Mb
Label: Discomate (Japan) | Released: 1984, June, 21

"
Voulez-Vous is the sixth studio album by Swedish group ABBA, released in 1979. It was the first ABBA album to be recorded at Polar Studios in Stockholm, and the only ABBA album to include a studio recording made outside Sweden. Some of the songs were secretly written and demoed at Compass Point Studios in Nassau, Bahamas, and the title track was recorded at Criteria Studios in Miami. Voulez-Vous was first released on CD in 1984. The album has been digitally remastered and reissued four times; first in 1997, then in 2001 and in 2005 as part of the The Complete Studio Recordings box set, and yet again in 2010 for the Voulez-Vous Deluxe Edition.
source: wikipedia

"


ABBA - Six Albums on Discomate Discs (1976-1981) [1984, Japanese 1st press]


Release of the album: 1979, April, 23 [LP Polar, Cat.# POLS 292, Sweden]
Release of this CD: 1984, June, 21 [CD Discomate (Japan), Cat.# CDP-106 / No Barcode]
℗ & © 1979 Polar Music International AB
Manufactured by Disco Co., Ltd. (Tokyo, Japan) ℗ & © 8406

Tracklist:

01. "As Good As New" (03:26)
(Andersson / Ulvaeus)
02. "Voulez-Vous" (05:12)
(Andersson / Ulvaeus)
03. "I Have A Dream" (04:46)
(Andersson / Ulvaeus)
04. "Angeleyes" (04:24)
(Andersson / Ulvaeus)
05. "The King Has Lost His Crown" (03:35)
(Andersson / Ulvaeus)
06. "Does Your Mother Know" (03:16)
(Andersson / Ulvaeus)
07. "If It Wasn't For The Nights" (05:13)
(Andersson / Ulvaeus)
08. "Chiquitita" (05:29)
(Andersson / Ulvaeus)
09. "Lovers (Live A Little Longer)" (03:32)
(Andersson / Ulvaeus)
10. "Kisses Of Fire" (03:16)
(Andersson / Ulvaeus)

Exact Audio Copy V1.0 beta 3 from 29. August 2011

Отчёт EAC об извлечении, выполненном 3. сентября 2014, 19:35

ABBA / Voulez-Vous

Дисковод: Optiarc DVD RW AD-7561A Adapter: 0 ID: 0

Режим чтения : Достоверность
Использование точного потока : Да
Отключение кэша аудио : Да
Использование указателей C2 : Нет

Коррекция смещения при чтении : 6
Способность читать области Lead-in и Lead-out : Нет
Заполнение пропущенных сэмплов тишиной : Да
Удаление блоков с тишиной в начале и конце : Нет
При вычислениях CRC использовались нулевые сэмплы : Да
Интерфейс : Установленный внешний ASPI-интерфейс

Выходной формат : Пользовательский кодировщик
Выбранный битрейт : 1024 kBit/s
Качество : Высокий
Добавление ID3-тега : Нет
Утилита сжатия : C:\Program Files\Exact Audio Copy\FLAC\FLAC.EXE
Дополнительные параметры : -6 -V -T "ARTIST=%artist%" -T "TITLE=%title%" -T "ALBUM=%albumtitle%" -T "DATE=%year%" -T "TRACKNUMBER=%tracknr%" -T "GENRE=%genre%" -T "COMMENT=%comment%" -T "BAND=%albuminterpret%" -T "ALBUMARTIST=%albuminterpret%" -T "COMPOSER=%composer%" %haslyrics%--tag-from-file=LYRICS="%lyricsfile%"%haslyrics% -T "DISCNUMBER=%cdnumber%" -T "TOTALDISCS=%totalcds%" -T "TOTALTRACKS=%numtracks%" %hascover%--picture="%coverfile%"%hascover% %source% -o %dest%

TOC извлечённого CD Трек | Старт | Длительность | Начальный сектор | Конечный сектор

1 | 0:00.37 | 3:25.59 | 37 | 15470
2 | 3:26.21 | 5:12.16 | 15471 | 38886
3 | 8:38.37 | 4:46.24 | 38887 | 60360
4 | 13:24.61 | 4:24.22 | 60361 | 80182
5 | 17:49.08 | 3:35.33 | 80183 | 96340
6 | 21:24.41 | 3:16.37 | 96341 | 111077
7 | 24:41.03 | 5:13.03 | 111078 | 134555
8 | 29:54.06 | 5:29.10 | 134556 | 159240
9 | 35:23.16 | 3:31.41 | 159241 | 175106
10 | 38:54.57 | 3:16.26 | 175107 | 189832

Характеристики диапазона извлечения и сообщения об ошибках

Выбранный диапазон Имя файла C:\Users\SERGEY\Music\ABBA\Voulez-Vous - Discomate CDP 106\ABBA - Voulez-Vous.wav Пиковый уровень 89.5 %
Скорость извлечения 4.4 X
Качество диапазона 100.0 %
CRC теста 5CDF7FA0
CRC копии 5CDF7FA0
Копирование... OK

Ошибок не произошло


AccurateRip: сводка

Трек 1 : извлечено точно (доверие 1) [D51B79E7] (AR v1)
Трек 2 : извлечено точно (доверие 1) [3505D647] (AR v1)
Трек 3 : извлечено точно (доверие 1) [218D3E7F] (AR v1)
Трек 4 : извлечено точно (доверие 1) [783190EB] (AR v1)
Трек 5 : извлечено точно (доверие 1) [C945603D] (AR v1)
Трек 6 : извлечено точно (доверие 1) [322278C9] (AR v1)
Трек 7 : извлечено точно (доверие 1) [D0CFF092] (AR v1)
Трек 8 точность не определена (достоверность 1) [ABB27A5E], AccurateRip вернул [00FBD07F] (AR v2)
Трек 9 точность не определена (достоверность 1) [2F10249B], AccurateRip вернул [267F4D22] (AR v2)
Трек 10 точность не определена (достоверность 1) [36A9510E], AccurateRip вернул [02E9D726] (AR v2)

7 трек(и) скопированы точно
3 трек(и) не удалось проверить на точность

Некоторые треки не прошли проверку на точность

Конец отчёта

---- CUETools DB Plugin V2.1.3

[CTDB TOCID: KCBaT51XCyVOsZV_cpngx79M5.k-] disk not present in database, Submit result: discs with pregaps not supported in this protocol version

foobar2000 1.3.7 / Dynamic Range Meter 1.1.1
log date: 2015-06-14 00:19:51

------
Analyzed: ABBA / Voulez-Vous
------

DR Peak RMS Duration Track
------
DR14 -3.09 dB -19.98 dB 3:26 01-As Good As New
DR14 -1.89 dB -17.61 dB 5:12 02-Voulez-Vous
DR14 -5.28 dB -22.70 dB 4:46 03-I Have A Dream
DR14 -2.27 dB -17.67 dB 4:24 04-Angel Eyes
DR13 -3.20 dB -19.45 dB 3:35 05-The King Has Lost His Crown
DR13 -1.46 dB -16.72 dB 3:16 06-Does Your Mother Know
DR13 -2.02 dB -17.12 dB 5:13 07-If It Wasn't For The Nights
DR13 -0.96 dB -18.51 dB 5:29 08-Chiquitita
DR14 -1.42 dB -17.71 dB 3:32 09-Lovers (Live A Little Longer)
DR13 -1.98 dB -18.73 dB 3:16 10-Kisses Of Fire
------

Number of tracks: 10
Official DR value: DR13

Samplerate: 44100 Hz
Channels: 2
Bits per sample: 16
Bitrate: 890 kbps
Codec: FLAC

=

ABBA - Six Albums on Discomate Discs (1976-1981) [1984, Japanese 1st press]

ABBA - Greatest Hits Vol. 2 (1979)
Pop/Rock, Dance-Pop, Disco | EAC Rip | FLAC, Img+CUE + LOG + Artwork-600dpi (JPEG) | 58:16 Min | 424,26 Mb
Label: Discomate (Japan) | Released: 1984, April, 21

"
Greatest Hits Vol. 2 is a compilation album by Swedish pop group ABBA, released in October 1979 to coincide with their tour of North America and Europe (taking place between September and November 1979). It was ABBA's second chart-topping album of the year, the first being Voulez-Vous, and contained the brand new single "Gimme! Gimme! Gimme! (A Man After Midnight)", recorded in August 1979. A round-up of ABBA's hits since their first compilation album (released in 1975), the album exclusively included material recorded between the years 1976 and 1979 (albums Arrival, The Album and Voulez-Vous plus non-album single "Summer Night City") - with one exception, "Rock Me" from 1975 album ABBA, issued as a single and became a top 5 hit in Australia and New Zealand after the release of the band's first hits package Greatest Hits and also part of the setlist on the 1979 world tour. "Angeleyes" was included primarily due to its success as a single in the UK, where it was the lead track of a double A-side with "Voulez-Vous". Elsewhere, "Voulez-Vous" had been the A-side in its own right but it was not included on the album. However, the track "I Wonder (Departure)" was not believed to have been released as a single anywhere, but was featured. Greatest Hits Vol. 2 received massive commercial success in Japan, selling in excess of 920,000 units on the chart (it was the best-selling album by non-domestic artists at the time, until Michael Jackson's Thriller and the soundtrack of the motion picture Flashdance each sold over 1 million copies in the 1980s). It is certified Gold in the U.S. Greatest Hits Vol. 2 was released on CD in 1982 By Polydor but was deleted from their ABBA CD range in 1992 when it was replaced with ABBA Gold. It was also released in the US by Atlantic Records in 1983 with the same mastering as the Polydor CD but was discontinued there in the late 1980s as well.
source: wikipedia

"


ABBA - Six Albums on Discomate Discs (1976-1981) [1984, Japanese 1st press]


Release of the album: 1979, October, 29 [LP Polar, Cat.# POLS 312, Sweden]
Release of this CD: 1984, April, 21 [CD Discomate (Japan), Cat.# CDP-103 / No Barcode]
℗ & © 1979 Polar Music International AB
Manufactured by Disco Co., Ltd. (Tokyo, Japan) ℗ & © 8404

Tracklist:

01. "Gimme! Gimme! Gimme! (A Man After Midnight)" (04:49)
(Andersson / Ulvaeus)
02. "Knowing Me, Knowing You" (04:01)
(Anderson / Andersson / Ulvaeus)
03. "Take a Chance on Me" (03:59)
(Andersson / Ulvaeus)
04. "Money, Money, Money" (03:07)
(Andersson / Ulvaeus)
05. "Rock Me" (03:03)
(Andersson / Ulvaeus)
06. "Eagle" (05:49)
(Andersson / Ulvaeus)
07. "Angeleyes" (04:17)
(Andersson / Ulvaeus)
08. "Dancing Queen" (03:50)
(Anderson / Andersson / Ulvaeus)
09. "Does Your Mother Know" (03:13)
(Andersson / Ulvaeus)
10. "Chiquitita" (05:23)
(Andersson / Ulvaeus)
11. "Summer Night City" (03:32)
(Andersson / Ulvaeus)
12. "I Wonder (Departure)" (04:33)
(Anderson / Andersson / Ulvaeus)
13. "The Name Of The Game" (04:52)
(Anderson / Andersson / Ulvaeus)
14. "Thank You For The Music" (03:49)
(Andersson / Ulvaeus)

Exact Audio Copy V1.0 beta 3 from 29. August 2011

Отчёт EAC об извлечении, выполненном 7. мая 2014, 22:25

Abba / Greatest Hits Vol. 2

Дисковод: Optiarc DVD RW AD-7561A Adapter: 0 ID: 0

Режим чтения : Достоверность
Использование точного потока : Да
Отключение кэша аудио : Да
Использование указателей C2 : Нет

Коррекция смещения при чтении : 6
Способность читать области Lead-in и Lead-out : Нет
Заполнение пропущенных сэмплов тишиной : Да
Удаление блоков с тишиной в начале и конце : Нет
При вычислениях CRC использовались нулевые сэмплы : Да
Интерфейс : Установленный внешний ASPI-интерфейс

Выходной формат : Пользовательский кодировщик
Выбранный битрейт : 128 kBit/s
Качество : Высокий
Добавление ID3-тега : Нет
Утилита сжатия : C:\Program Files\Exact Audio Copy\FLAC\FLAC.EXE
Дополнительные параметры : -6 -V -T "ARTIST=%artist%" -T "TITLE=%title%" -T "ALBUM=%albumtitle%" -T "DATE=%year%" -T "TRACKNUMBER=%tracknr%" -T "GENRE=%genre%" -T "COMMENT=%comment%" -T "BAND=%albuminterpret%" -T "ALBUMARTIST=%albuminterpret%" -T "COMPOSER=%composer%" %haslyrics%--tag-from-file=LYRICS="%lyricsfile%"%haslyrics% -T "DISCNUMBER=%cdnumber%" -T "TOTALDISCS=%totalcds%" -T "TOTALTRACKS=%numtracks%" %hascover%--picture="%coverfile%"%hascover% %source% -o %dest%

TOC извлечённого CD Трек | Старт | Длительность | Начальный сектор | Конечный сектор

1 | 0:00.37 | 4:49.00 | 37 | 21711
2 | 4:49.37 | 4:01.05 | 21712 | 39791
3 | 8:50.42 | 3:58.45 | 39792 | 57686
4 | 12:49.12 | 3:06.55 | 57687 | 71691
5 | 15:55.67 | 3:03.23 | 71692 | 85439
6 | 18:59.15 | 5:48.50 | 85440 | 111589
7 | 24:47.65 | 4:16.72 | 111590 | 130861
8 | 29:04.62 | 3:50.08 | 130862 | 148119
9 | 32:54.70 | 3:13.12 | 148120 | 162606
10 | 36:08.07 | 5:23.05 | 162607 | 186836
11 | 41:31.12 | 3:32.03 | 186837 | 202739
12 | 45:03.15 | 4:33.20 | 202740 | 223234
13 | 49:36.35 | 4:51.50 | 223235 | 245109
14 | 54:28.10 | 3:49.12 | 245110 | 262296

Характеристики диапазона извлечения и сообщения об ошибках

Выбранный диапазон Имя файла C:\Users\SERGEY\Music\ABBA\Greatest Hits Vol.2\Abba - Greatest Hits Vol. 2.wav Пиковый уровень 98.2 %
Скорость извлечения 3.0 X
Качество диапазона 99.8 %
CRC теста F87BC781
CRC копии 1EFEA8E5
Копирование... OK

Ошибок не произошло


AccurateRip: сводка

Трек 1 отсутствует в базе данных
Трек 2 отсутствует в базе данных
Трек 3 отсутствует в базе данных
Трек 4 отсутствует в базе данных
Трек 5 отсутствует в базе данных
Трек 6 отсутствует в базе данных
Трек 7 отсутствует в базе данных
Трек 8 отсутствует в базе данных
Трек 9 отсутствует в базе данных
Трек 10 отсутствует в базе данных
Трек 11 отсутствует в базе данных
Трек 12 отсутствует в базе данных
Трек 13 отсутствует в базе данных
Трек 14 отсутствует в базе данных

Ни одного трека нет в базе AccurateRip

Конец отчёта

---- CUETools DB Plugin V2.1.3

[CTDB TOCID: _4EFT2AlJWudgsI0BJOEaE_7_lU-] disk not present in database, Submit result: discs with pregaps not supported in this protocol version

foobar2000 1.3.7 / Dynamic Range Meter 1.1.1
log date: 2015-06-14 00:17:22

------
Analyzed: Abba / Greatest Hits Vol. 2
------

DR Peak RMS Duration Track
------
DR14 -0.61 dB -16.99 dB 4:49 01-Gimme Gimme Gimme (A Man After Midnight)
DR13 -0.61 dB -16.42 dB 4:01 02-Knowing Me Knowing You
DR15 -0.51 dB -16.84 dB 3:59 03-Take A Chance On Me
DR14 -0.15 dB -18.46 dB 3:07 04-Money Money Money
DR13 -1.28 dB -16.67 dB 3:03 05-Rock Me
DR13 -0.31 dB -15.48 dB 5:49 06-Eagle
DR13 -0.35 dB -15.69 dB 4:17 07-Angeleyes
DR12 -1.95 dB -16.47 dB 3:50 08-Dancing Queen
DR13 -0.52 dB -15.77 dB 3:13 09-Does Your Mother Know
DR13 -1.35 dB -18.14 dB 5:23 10-Chiquitita
DR13 -0.59 dB -16.01 dB 3:32 11-Summer Night City
DR13 -1.13 dB -19.19 dB 4:33 12-I Wonder (Departure)
DR14 -0.54 dB -17.91 dB 4:52 13-The Name Of The Game
DR13 -2.47 dB -18.81 dB 3:49 14-Thank You For The Music
------

Number of tracks: 14
Official DR value: DR13

Samplerate: 44100 Hz
Channels: 2
Bits per sample: 16
Bitrate: 924 kbps
Codec: FLAC

=

ABBA - Six Albums on Discomate Discs (1976-1981) [1984, Japanese 1st press]

ABBA - Super Trouper (1980)
Pop/Rock, Dance-Pop, Disco | EAC Rip | FLAC, Img+CUE + LOG + Artwork-1200dpi (JPEG) | 42:21 Min | 348,64 Mb
Label: Discomate (Japan) | Released: 1984, February, 25

"
Super Trouper is the seventh studio album by Swedish pop group ABBA, first released in 1980. It features the #1 singles "The Winner Takes It All" and "Super Trouper". The album became the biggest-selling of 1980 in the UK.
source: wikipedia

"


ABBA - Six Albums on Discomate Discs (1976-1981) [1984, Japanese 1st press]


Release of the album: 1980, November, 3 [LP Polar, Cat.# POLS 322, Sweden]
Release of this CD: 1984, February, 25 [CD Discomate (Japan), Cat.# CDP-102 / No Barcode]
℗ & © 1980 Polar Music International AB
Manufactured by Disco Co., Ltd. (Tokyo, Japan) ℗ 1983

Tracklist:

01. "Super Trouper" (04:12)
(Andersson / Ulvaeus)
02. "The Winner Takes It All" (04:56)
(Andersson / Ulvaeus)
03. "On And On And On" (03:41)
(Andersson / Ulvaeus)
04. "Andante, Andante" (04:40)
(Andersson / Ulvaeus)
05. "Me And I" (04:55)
(Andersson / Ulvaeus)
06. "Happy New Year" (04:24)
(Andersson / Ulvaeus)
07. "Our Last Summer" (04:20)
(Andersson / Ulvaeus)
08. "The Piper" (03:27)
(Andersson / Ulvaeus)
09. "Lay All Your Love On Me" (04:35)
(Andersson / Ulvaeus)
10. "The Way Old Friends Do (Live)" (03:12)
(Andersson / Ulvaeus)

Exact Audio Copy V1.0 beta 3 from 29. August 2011

Отчёт EAC об извлечении, выполненном 3. сентября 2014, 20:00

ABBA / Super Trouper

Дисковод: Optiarc DVD RW AD-7561A Adapter: 0 ID: 0

Режим чтения : Достоверность
Использование точного потока : Да
Отключение кэша аудио : Да
Использование указателей C2 : Нет

Коррекция смещения при чтении : 6
Способность читать области Lead-in и Lead-out : Нет
Заполнение пропущенных сэмплов тишиной : Да
Удаление блоков с тишиной в начале и конце : Нет
При вычислениях CRC использовались нулевые сэмплы : Да
Интерфейс : Установленный внешний ASPI-интерфейс

Выходной формат : Пользовательский кодировщик
Выбранный битрейт : 1024 kBit/s
Качество : Высокий
Добавление ID3-тега : Нет
Утилита сжатия : C:\Program Files\Exact Audio Copy\FLAC\FLAC.EXE
Дополнительные параметры : -6 -V -T "ARTIST=%artist%" -T "TITLE=%title%" -T "ALBUM=%albumtitle%" -T "DATE=%year%" -T "TRACKNUMBER=%tracknr%" -T "GENRE=%genre%" -T "COMMENT=%comment%" -T "BAND=%albuminterpret%" -T "ALBUMARTIST=%albuminterpret%" -T "COMPOSER=%composer%" %haslyrics%--tag-from-file=LYRICS="%lyricsfile%"%haslyrics% -T "DISCNUMBER=%cdnumber%" -T "TOTALDISCS=%totalcds%" -T "TOTALTRACKS=%numtracks%" %hascover%--picture="%coverfile%"%hascover% %source% -o %dest%

TOC извлечённого CD Трек | Старт | Длительность | Начальный сектор | Конечный сектор

1 | 0:00.37 | 4:12.13 | 37 | 18949
2 | 4:12.50 | 4:55.50 | 18950 | 41124
3 | 9:08.25 | 3:40.60 | 41125 | 57684
4 | 12:49.10 | 4:39.47 | 57685 | 78656
5 | 17:28.57 | 4:55.05 | 78657 | 100786
6 | 22:23.62 | 4:24.16 | 100787 | 120602
7 | 26:48.03 | 4:20.17 | 120603 | 140119
8 | 31:08.20 | 3:27.18 | 140120 | 155662
9 | 34:35.38 | 4:34.69 | 155663 | 176281
10 | 39:10.32 | 3:11.38 | 176282 | 190644

Характеристики диапазона извлечения и сообщения об ошибках

Выбранный диапазон Имя файла C:\Users\SERGEY\Music\ABBA\Super Trooper - Discomate CDP 102\ABBA - Super Trouper.wav Пиковый уровень 100.0 %
Скорость извлечения 4.1 X
Качество диапазона 100.0 %
CRC теста 45C1ECD7
CRC копии 45C1ECD7
Копирование... OK

Ошибок не произошло


AccurateRip: сводка

Трек 1 точность не определена (достоверность 1) [6F5D005E], AccurateRip вернул [C440DD02] (AR v2)
Трек 2 точность не определена (достоверность 1) [C44C50B6], AccurateRip вернул [46C1655F] (AR v2)
Трек 3 точность не определена (достоверность 1) [737CFE2D], AccurateRip вернул [DBA72B6F] (AR v2)
Трек 4 точность не определена (достоверность 1) [8EDA3B3A], AccurateRip вернул [E2F44148] (AR v2)
Трек 5 точность не определена (достоверность 1) [4C49D2AB], AccurateRip вернул [6E50B96C] (AR v2)
Трек 6 точность не определена (достоверность 1) [DDE2023F], AccurateRip вернул [AB5828E7] (AR v2)
Трек 7 точность не определена (достоверность 1) [F7664712], AccurateRip вернул [C0022834] (AR v2)
Трек 8 точность не определена (достоверность 1) [C569DB78], AccurateRip вернул 1EF2DCC (AR v2)
Трек 9 точность не определена (достоверность 1) [02691B7B], AccurateRip вернул [E265D906] (AR v2)
Трек 10 точность не определена (достоверность 1) [5A98FAF2], AccurateRip вернул [0F614933] (AR v2)

Ни один трек не прошёл проверки на точность
В вашей базе может быть иной вариант штамповки диска

Конец отчёта

---- CUETools DB Plugin V2.1.3

[CTDB TOCID: VX7y_1Ja_LeEjYz9Fvgrzzm2Diw-] disk not present in database, Submit result: discs with pregaps not supported in this protocol version

foobar2000 1.3.7 / Dynamic Range Meter 1.1.1
log date: 2015-06-14 00:18:06

------
Analyzed: ABBA / Super Trouper
------

DR Peak RMS Duration Track
------
DR14 0.00 dB -15.49 dB 4:12 01-Super Trouper
DR14 0.00 dB -17.45 dB 4:56 02-The Winner Takes It All
DR13 0.00 dB -15.48 dB 3:41 03-On and On and On
DR13 -0.75 dB -17.12 dB 4:40 04-Andante, Andante
DR14 0.00 dB -15.24 dB 4:55 05-Me and I
DR13 -0.09 dB -17.51 dB 4:24 06-Happy New Year
DR13 0.00 dB -15.78 dB 4:20 07-Our Last Summer
DR13 0.00 dB -15.24 dB 3:27 08-The Piper
DR13 0.00 dB -14.99 dB 4:35 09-Lay All Your Love on Me
DR11 -1.10 dB -17.11 dB 3:12 10-The Way Old Friends Do
------

Number of tracks: 10
Official DR value: DR13

Samplerate: 44100 Hz
Channels: 2
Bits per sample: 16
Bitrate: 909 kbps
Codec: FLAC

=

ABBA - Six Albums on Discomate Discs (1976-1981) [1984, Japanese 1st press]

ABBA - The Visitors (1981)
Pop/Rock, Dance-Pop, Disco | EAC Rip | FLAC, Img+CUE + LOG + Artwork-1200dpi (JPEG) | 38:00 Min | 284,19 Mb
Label: Discomate (Japan) | Released: 1984, February, 25

"
The Visitors is the eighth and final studio album by Swedish pop group ABBA, released on 30 November 1981. With The Visitors, ABBA took several steps away from the "lighter" pop music they had recorded previously and the album is often regarded as a more complex and mature effort. The opening track, "The Visitors", with its ominous synthesizer sounds and the distinctive lead vocal by Frida, announced a change in musical style. With Benny and Frida going their separate ways, the pain of splitting up was explored yet again in "When All Is Said and Done". The major hit single on the album, "One of Us" also depicted the end of a love story. Elsewhere there were current Cold War themes - highly topical at the time - and further songs of isolation and regret. The Visitors album was one of the first records ever to be recorded and mixed digitally, and was the first in history to be released on the new CD format in 1982 on Atlantic.
source: wikipedia

"


ABBA - Six Albums on Discomate Discs (1976-1981) [1984, Japanese 1st press]


Release of the album: 1981, November, 30 [LP Polar, Cat.# POLS 342, Sweden]
Release of this CD: 1984, February, 25 [CD Discomate (Japan), Cat.# CDP-101 / No Barcode]
℗ & © 1981 Polar Music International AB
Manufactured by Disco Co., Ltd. (Tokyo, Japan) ℗ 1983

Tracklist:

01. "The Visitors" (05:45)
(Andersson / Ulvaeus)
02. "Head Over Heels" (03:48)
(Andersson / Ulvaeus)
03. "When All Is Said And Done" (03:20)
(Andersson / Ulvaeus)
04. "Soldiers" (04:40)
(Andersson / Ulvaeus)
05. "I Let The Music Speak" (05:23)
(Andersson / Ulvaeus)
06. "One Of Us" (03:57)
(Andersson / Ulvaeus)
07. "Two For The Price Of One" (03:39)
(Andersson / Ulvaeus)
08. "Slipping Through My Fingers" (03:57)
(Andersson / Ulvaeus)
09. "Like An Angel Passing Through My Room" (03:32)
(Andersson / Ulvaeus)

Exact Audio Copy V1.0 beta 3 from 29. August 2011

Отчёт EAC об извлечении, выполненном 3. сентября 2014, 20:46

Abba / The Visitors

Дисковод: Optiarc DVD RW AD-7561A Adapter: 0 ID: 0

Режим чтения : Достоверность
Использование точного потока : Да
Отключение кэша аудио : Да
Использование указателей C2 : Нет

Коррекция смещения при чтении : 6
Способность читать области Lead-in и Lead-out : Нет
Заполнение пропущенных сэмплов тишиной : Да
Удаление блоков с тишиной в начале и конце : Нет
При вычислениях CRC использовались нулевые сэмплы : Да
Интерфейс : Установленный внешний ASPI-интерфейс

Выходной формат : Пользовательский кодировщик
Выбранный битрейт : 1024 kBit/s
Качество : Высокий
Добавление ID3-тега : Нет
Утилита сжатия : C:\Program Files\Exact Audio Copy\FLAC\FLAC.EXE
Дополнительные параметры : -6 -V -T "ARTIST=%artist%" -T "TITLE=%title%" -T "ALBUM=%albumtitle%" -T "DATE=%year%" -T "TRACKNUMBER=%tracknr%" -T "GENRE=%genre%" -T "COMMENT=%comment%" -T "BAND=%albuminterpret%" -T "ALBUMARTIST=%albuminterpret%" -T "COMPOSER=%composer%" %haslyrics%--tag-from-file=LYRICS="%lyricsfile%"%haslyrics% -T "DISCNUMBER=%cdnumber%" -T "TOTALDISCS=%totalcds%" -T "TOTALTRACKS=%numtracks%" %hascover%--picture="%coverfile%"%hascover% %source% -o %dest%

TOC извлечённого CD Трек | Старт | Длительность | Начальный сектор | Конечный сектор

1 | 0:00.37 | 5:45.03 | 37 | 25914
2 | 5:45.40 | 3:47.63 | 25915 | 43002
3 | 9:33.28 | 3:19.57 | 43003 | 57984
4 | 12:53.10 | 4:39.52 | 57985 | 78961
5 | 17:32.62 | 5:23.28 | 78962 | 103214
6 | 22:56.15 | 3:57.30 | 103215 | 121019
7 | 26:53.45 | 3:38.72 | 121020 | 137441
8 | 30:32.42 | 3:57.01 | 137442 | 155217
9 | 34:29.43 | 3:31.38 | 155218 | 171080

Характеристики диапазона извлечения и сообщения об ошибках

Выбранный диапазон Имя файла C:\Users\SERGEY\Music\ABBA\The Visitors - Discomate CDP 101\Abba - The Visitors.wav Пиковый уровень 100.0 %
Скорость извлечения 4.0 X
Качество диапазона 100.0 %
CRC теста E2CC0C24
CRC копии E2CC0C24
Копирование... OK

Ошибок не произошло


AccurateRip: сводка

Трек 1 : извлечено точно (доверие 1) [EB8809A8] (AR v2)
Трек 2 : извлечено точно (доверие 1) [75E82FA6] (AR v2)
Трек 3 : извлечено точно (доверие 1) [A9102517] (AR v2)
Трек 4 : извлечено точно (доверие 1) [1AC69636] (AR v2)
Трек 5 : извлечено точно (доверие 1) [68F471C1] (AR v2)
Трек 6 : извлечено точно (доверие 1) [98655DA2] (AR v2)
Трек 7 : извлечено точно (доверие 1) [23B29EBB] (AR v2)
Трек 8 : извлечено точно (доверие 1) [602C76DA] (AR v2)
Трек 9 : извлечено точно (доверие 1) [D8640B8C] (AR v2)

Все треки извлечены точно

Конец отчёта

---- CUETools DB Plugin V2.1.3

[CTDB TOCID: xM8AW4ruRFv2qyJwijZw18hN5rw-] disk not present in database, Submit result: discs with pregaps not supported in this protocol version

foobar2000 1.3.7 / Dynamic Range Meter 1.1.1
log date: 2015-06-14 00:19:04

------
Analyzed: Abba / The Visitors
------

DR Peak RMS Duration Track
------
DR17 0.00 dB -20.89 dB 5:45 01-The Visitors
DR17 -1.36 dB -20.31 dB 3:48 02-Head Over Heels
DR16 -0.27 dB -19.06 dB 3:20 03-When All Is Said And Done
DR16 -0.25 dB -18.15 dB 4:40 04-Soldiers
DR13 -2.53 dB -20.11 dB 5:23 05-I Let The Music Speak
DR18 -0.33 dB -20.41 dB 3:57 06-One Of Us
DR15 -1.51 dB -20.01 dB 3:39 07-Two For The Price Of One
DR12 -3.84 dB -19.61 dB 3:57 08-Slipping Through My Fingers
DR13 -7.05 dB -26.48 dB 3:32 09-Like An Angel Passing Through My Room
------

Number of tracks: 9
Official DR value: DR15

Samplerate: 44100 Hz
Channels: 2
Bits per sample: 16
Bitrate: 774 kbps
Codec: FLAC
DOWNLOAD LINKS
Buy Premium From My Links To Get Resumable Support & Max Speed & To Support Me


Links are Interchangeable - No Password - Single Extraction
Direct Download

Tags: Albums, Discomate, Japanese

ABBA - Six Albums on Discomate Discs (1976-1981) [1984, Japanese 1st press] Download via Hotfile Rapidshare Fileserve Megaupload & FileSonic, ABBA - Six Albums on Discomate Discs (1976-1981) [1984, Japanese 1st press] free torrent downloads included crack, serial, keygen.ABBA - Six Albums on Discomate Discs (1976-1981) [1984, Japanese 1st press] Fast Download via Rapidshare Hotfile Fileserve Filesonic Megaupload, ABBA - Six Albums on Discomate Discs (1976-1981) [1984, Japanese 1st press] Torrents and Emule Download or anything related.
Leave a Comment
Your Name:
E-Mail:
Add Comments:

Enter Code: