Sting - Sacred Love (2004) {A&M Records 0602498196397 Reissue}

Download Now


Sting - Sacred Love (2004) {A&M Records 0602498196397 Reissue}
Sting - Sacred Love (2004) {A&M Records 0602498196397 Reissue}
EAC rip (secure mode) | FLAC (tracks)+CUE+LOG -> 457 Mb | MP3 @320 -> 154 Mb
Full Artwork @ 300 dpi (jpg) -> 26 Mb | 5% repair rar
© 2004 A&M Records / UMG | 0602498196397
Rock / Soft Rock / Adult Alternative Pop / Contemporary Pop

"Sting explores his shiny, happy side on Sacred Love, adding playful touches of techno to his smooth, vaguely multi-cultural pop sound. Like 1999's Brand New Day, Love sounds effortless and content, with expert musicians backing up Sting's gauzy revelations about love and life. The former Police frontman shakes things up here and there; DJ/producers like BT and Victor Calderone breathe life into tracks like "Never Coming Home" and "Send Your Love," while Mary J. Blige puts her smoky vocals to work on "Whenever I Say Your Name.""

Sting - Sacred Love (2004) {A&M Records 0602498196397 Reissue}

Sting - Sacred Love (2004) {A&M Records 0602498196397 Reissue}


tracklist:
01 - Inside
02 - Send Your Love
03 - Whenever I Say Your Name
04 - Dead Man's Rope
05 - Never Coming Home
06 - Stolen Car (Take Me Dancing)
07 - Forget About The Future
08 - This War
09 - The Book Of My Life
10 - Sacred Love
11 - Send Your Love (Dave Aude Remix)
12 - Shape Of My Heart (Live)
13 - Stolen Car (Take Me Dancing) (Radio Version)
14 - Stolen Car (Take Me Dancing) (B. Recluse Mix)

Exact Audio Copy V1.0 beta 4 from 7. December 2014

EAC extraction logfile from 4. May 2015, 15:10

Sting / Sacred Love [A&M Records 0602498196397]

Used drive : HL-DT-STBD-RE BH10LS30 Adapter: 1 ID: 0

Read mode : Secure
Utilize accurate stream : Yes
Defeat audio cache : Yes
Make use of C2 pointers : No

Read offset correction

: 667
Overread into Lead-In and Lead-Out : No
Fill up missing offset samples with silence : Yes
Delete leading and trailing silent blocks : No
Null samples used in CRC calculations : Yes
Used interface
: Native Win32 interface for Win NT & 2000
Gap handling
: Appended to previous track

Used output format : User Defined Encoder
Selected bitrate : 896 kBit/s
Quality : High
Add ID3 tag : No
Command line compressor : C:\Program Files (x86)\Exact Audio Copy\FLAC\FLAC.EXE
Additional command line options : -8 -V -T "ARTIST=%artist%" -T "TITLE=%title%" -T "ALBUM=%albumtitle%" -T "DATE=%year%" -T "TRACKNUMBER=%tracknr%" -T "TOTALTRACKS=%numtracks%" -T "GENRE=%genre%" -T "ALBUMARTIST=%albumartist%" -T "ALBUM ARTIST=%albumartist%" -T "COMMENT=EAC Secure Mode, Test & Copy, AccurateRip, FLAC -8" %source%

TOC of the extracted CD Track | Start | Length | Start sector | End sector
1 | 0:00.00 | 4:47.50 | 0 | 21574 2 | 4:47.50 | 4:38.02 | 21575 | 42426 3 | 9:25.52 | 5:27.73 | 42427 | 67024 4 | 14:53.50 | 5:43.42 | 67025 | 92791 5 | 20:37.17 | 4:59.55 | 92792 | 115271 6 | 25:36.72 | 3:58.03 | 115272 | 133124 7 | 29:35.00 | 5:12.52 | 133125 | 156576 8 | 34:47.52 | 5:30.55 | 156577 | 181381 9 | 40:18.32 | 6:16.00 | 181382 | 209581
10 | 46:34.32 | 6:02.18 | 209582 | 236749
11 | 52:36.50 | 3:17.50 | 236750 | 251574
12 | 55:54.25 | 2:20.51 | 251575 | 262125
13 | 58:15.01 | 3:42.02 | 262126 | 278777
14 | 61:57.03 | 3:02.57 | 278778 | 292484

Track 1 Filename D:\Sting - Sacred Love (2004) [FLAC] {A&M Records 0602498196397 Reissue}\01 - Inside.wav Pre-gap length 0:00:02.00 Peak level 98.5 %
Extraction speed 1.1 X
Track quality 100.0 %
Test CRC 00AC1C1F
Copy CRC 00AC1C1F
Accurately ripped (confidence 29) [44ACA8C3] (AR v2)
Copy OK

Track 2 Filename D:\Sting - Sacred Love (2004) [FLAC] {A&M Records 0602498196397 Reissue}\02 - Send Your Love.wav Peak level 98.5 %
Extraction speed 1.3 X
Track quality 100.0 %
Test CRC 4B9E2C83
Copy CRC 4B9E2C83
Accurately ripped (confidence 28) [3437519B] (AR v2)
Copy OK

Track 3 Filename D:\Sting - Sacred Love (2004) [FLAC] {A&M Records 0602498196397 Reissue}\03 - Whenever I Say Your Name.wav Peak level 98.7 %
Extraction speed 1.3 X
Track quality 99.9 %
Test CRC 27659996
Copy CRC 27659996
Accurately ripped (confidence 29) [A2364583] (AR v2)
Copy OK

Track 4 Filename D:\Sting - Sacred Love (2004) [FLAC] {A&M Records 0602498196397 Reissue}\04 - Dead Man's Rope.wav Peak level 98.6 %
Extraction speed 1.6 X
Track quality 100.0 %
Test CRC 3062E4BC
Copy CRC 3062E4BC
Accurately ripped (confidence 28) [5E5FEC49] (AR v2)
Copy OK

Track 5 Filename D:\Sting - Sacred Love (2004) [FLAC] {A&M Records 0602498196397 Reissue}\05 - Never Coming Home.wav Peak level 98.5 %
Extraction speed 1.7 X
Track quality 100.0 %
Test CRC 02FB3396
Copy CRC 02FB3396
Accurately ripped (confidence 29) [801CE51C] (AR v2)
Copy OK

Track 6 Filename D:\Sting - Sacred Love (2004) [FLAC] {A&M Records 0602498196397 Reissue}\06 - Stolen Car (Take Me Dancing).wav Peak level 98.6 %
Extraction speed 1.5 X
Track quality 99.9 %
Test CRC 4A1FABCA
Copy CRC 4A1FABCA
Accurately ripped (confidence 29) [7649AC01] (AR v2)
Copy OK

Track 7 Filename D:\Sting - Sacred Love (2004) [FLAC] {A&M Records 0602498196397 Reissue}\07 - Forget About The Future.wav Peak level 98.5 %
Extraction speed 1.7 X
Track quality 99.9 %
Test CRC 1BF1CFD6
Copy CRC 1BF1CFD6
Accurately ripped (confidence 29) [4E73F263] (AR v2)
Copy OK

Track 8 Filename D:\Sting - Sacred Love (2004) [FLAC] {A&M Records 0602498196397 Reissue}\08 - This War.wav Peak level 98.7 %
Extraction speed 2.0 X
Track quality 100.0 %
Test CRC 34868CDD
Copy CRC 34868CDD
Accurately ripped (confidence 29) [655F57B5] (AR v2)
Copy OK

Track 9 Filename D:\Sting - Sacred Love (2004) [FLAC] {A&M Records 0602498196397 Reissue}\09 - The Book Of My Life.wav Peak level 98.5 %
Extraction speed 2.1 X
Track quality 100.0 %
Test CRC 641FF90F
Copy CRC 641FF90F
Accurately ripped (confidence 30) [4F7EFB61] (AR v2)
Copy OK

Track 10 Filename D:\Sting - Sacred Love (2004) [FLAC] {A&M Records 0602498196397 Reissue}\10 - Sacred Love.wav Peak level 98.6 %
Extraction speed 2.2 X
Track quality 100.0 %
Test CRC 7A19644F
Copy CRC 7A19644F
Accurately ripped (confidence 30) [41D994AC] (AR v2)
Copy OK

Track 11 Filename D:\Sting - Sacred Love (2004) [FLAC] {A&M Records 0602498196397 Reissue}\11 - Send Your Love (Dave Aude Remix).wav Peak level 98.4 %
Extraction speed 2.1 X
Track quality 100.0 %
Test CRC A1031842
Copy CRC A1031842
Accurately ripped (confidence 30) [2743EDB2] (AR v2)
Copy OK

Track 12 Filename D:\Sting - Sacred Love (2004) [FLAC] {A&M Records 0602498196397 Reissue}\12 - Shape Of My Heart (Live).wav Peak level 98.0 %
Extraction speed 2.0 X
Track quality 100.0 %
Test CRC 561F153B
Copy CRC 561F153B
Accurately ripped (confidence 30) [2C523B9B] (AR v2)
Copy OK

Track 13 Filename D:\Sting - Sacred Love (2004) [FLAC] {A&M Records 0602498196397 Reissue}\13 - Stolen Car (Take Me Dancing) (Radio Version).wav Pre-gap length 0:00:01.49 Peak level 100.0 %
Extraction speed 2.3 X
Track quality 100.0 %
Test CRC 74D2017A
Copy CRC 74D2017A
Accurately ripped (confidence 30) [31F33CD5] (AR v2)
Copy OK

Track 14 Filename D:\Sting - Sacred Love (2004) [FLAC] {A&M Records 0602498196397 Reissue}\14 - Stolen Car (Take Me Dancing) (B. Recluse Mix).wav Pre-gap length 0:00:02.06 Peak level 88.1 %
Extraction speed 2.2 X
Track quality 100.0 %
Test CRC 6CB9954E
Copy CRC 6CB9954E
Accurately ripped (confidence 29) [D8B8B413] (AR v2)
Copy OK

All tracks accurately ripped

No errors occurred

End of status report

---- CUETools DB Plugin V2.1.4

[CTDB TOCID: mrDKt5GeVQB07_i47a4ZlZIcLvg-] found
Submit result: already submitted
Track | CTDB Status
1 | (48/48) Accurately ripped
2 | (48/48) Accurately ripped
3 | (48/48) Accurately ripped
4 | (48/48) Accurately ripped
5 | (48/48) Accurately ripped
6 | (48/48) Accurately ripped
7 | (48/48) Accurately ripped
8 | (48/48) Accurately ripped
9 | (47/48) Accurately ripped
10 | (48/48) Accurately ripped
11 | (48/48) Accurately ripped
12 | (48/48) Accurately ripped
13 | (48/48) Accurately ripped
14 | (46/48) Accurately ripped

==== Log checksum 11E9A8648E09FDCB4FFFDC3DED9266A09569E0014B9332107F300E68FF39BD89 ====

Sting - Sacred Love (2004) {A&M Records 0602498196397 Reissue}

Sting - Sacred Love (2004) {A&M Records 0602498196397 Reissue}


All thanks goes to the original releaser!
DOWNLOAD LINKS:


No Password
Direct Download

Tags: Sacred, Records, Reissue

Sting - Sacred Love (2004) {A&M Records 0602498196397 Reissue} Download via Hotfile Rapidshare Fileserve Megaupload & FileSonic, Sting - Sacred Love (2004) {A&M Records 0602498196397 Reissue} free torrent downloads included crack, serial, keygen.Sting - Sacred Love (2004) {A&M Records 0602498196397 Reissue} Fast Download via Rapidshare Hotfile Fileserve Filesonic Megaupload, Sting - Sacred Love (2004) {A&M Records 0602498196397 Reissue} Torrents and Emule Download or anything related.
Leave a Comment
Your Name:
E-Mail:
Add Comments:

Enter Code: