Never The Bride - Jealousy (2015)

Download Now

Never The Bride - Jealousy (2015)

Never The Bride - Jealousy (2015)
EAC Rip | FLAC (Img) + Cue + Log ~ 469 Mb | MP3 CBR320 ~ 164 Mb
Scans Included (JPG, 600 dpi) | RAR 5% Recovery
Classic/Blues/Country Rock, Soul-Blues | Lock Stock and Barrel Records #LSBRCD12

"When a rock ‘n roll band is fronted by an electrifying voice like Nikki Lamborn's, when its songs are written by the gifted Catherine ‘Been' Feeney, when its musicians are world class, it's called Never The Bride... Never the Bride has released six studio albums to date. "Jealousy" is a Never The Bride's tribute to transatlantic rock and blues pioneers - the album of eclectic and wonderful covers that have been freshly realised and rebirthed by these partners in crime. Never the Bride is an English band, founded around 1991. Bristol-born vocalist Nikki Lamborn co-writes original songs with Catherine "Been" Feeney, who is the main composer, keyboard player, vocalist and occasional guitarist. Nikki and Catherine are the nucleus of the band, drawing additional members from an enviable pool of talented world-class musicians..."

Official Website | Wiki | Discogs | All Music
***************

Never The Bride - Jealousy (2015)

Track List:

01. Cocaine [03:07]
02. Baby Please Don't Go [04:05]
03. Like The Way I Do [05:52]
04. Jealousy [04:54]
05. Feels Like Making Love [06:38]
06. Me & Bobby [05:45]
07. Stay With Me Baby [05:07]
08. Don't Let me Be Misunderstood [04:41]
09. We Gotta Get Out Of This Place [04:18]
10. Sympathy [07:04]
11. It's A Long Way To Get To The Top [04:32]

Exact Audio Copy V1.0 beta 3 from 29. August 2011

Отчёт EAC об извлечении, выполненном 26. мая 2015, 6:07

Never The Bride / Jealousy

Дисковод: PLEXTOR DVDR PX-880SA Adapter: 1 ID: 0

Режим чтения : Достоверность
Использование точного потока : Да
Отключение кэша аудио : Да
Использование указателей C2 : Нет

Коррекция смещения при чтении : 6
Способность читать области Lead-in и Lead-out : Нет
Заполнение пропущенных сэмплов тишиной : Да
Удаление блоков с тишиной в начале и конце : Нет
При вычислениях CRC использовались нулевые сэмплы : Да
Интерфейс : Установленный внешний ASPI-интерфейс

Выходной формат : Пользовательский кодировщик
Выбранный битрейт : 1024 kBit/s
Качество : Высокий
Добавление ID3-тега : Нет
Утилита сжатия : C:\Program Files\Exact Audio Copy\FLAC\FLAC.EXE
Дополнительные параметры : -10 -V -T "ARTIST=%artist%" -T "ALBUM=%albumtitle%" -T "DATE=%year%" -T "GENRE=%genre%" -T "COMMENT=ripped by izia1956" %source%

TOC извлечённого CD Трек | Старт | Длительность | Начальный сектор | Конечный сектор

1 | 0:00.00 | 3:06.46 | 0 | 13995
2 | 3:06.46 | 4:04.37 | 13996 | 32332
3 | 7:11.08 | 5:51.65 | 32333 | 58722
4 | 13:02.73 | 4:53.59 | 58723 | 80756
5 | 17:56.57 | 6:37.40 | 80757 | 110571
6 | 24:34.22 | 5:44.05 | 110572 | 136376
7 | 30:18.27 | 5:06.43 | 136377 | 159369
8 | 35:24.70 | 4:40.38 | 159370 | 180407
9 | 40:05.33 | 4:17.04 | 180408 | 199686
10 | 44:22.37 | 7:03.45 | 199687 | 231456
11 | 51:26.07 | 4:31.30 | 231457 | 251811

Характеристики диапазона извлечения и сообщения об ошибках

Выбранный диапазон Имя файла D:\BitComet\Never The Bride (flac)\2015 - Jealousy\Never The Bride - Jealousy.wav Пиковый уровень 96.6 %
Скорость извлечения 2.7 X
Качество диапазона 99.9 %
CRC теста E5F843AA
CRC копии E5F843AA
Копирование... OK

Ошибок не произошло


AccurateRip: сводка

Трек 1 отсутствует в базе данных
Трек 2 отсутствует в базе данных
Трек 3 отсутствует в базе данных
Трек 4 отсутствует в базе данных
Трек 5 отсутствует в базе данных
Трек 6 отсутствует в базе данных
Трек 7 отсутствует в базе данных
Трек 8 отсутствует в базе данных
Трек 9 отсутствует в базе данных
Трек 10 отсутствует в базе данных
Трек 11 отсутствует в базе данных

Ни одного трека нет в базе AccurateRip

Конец отчёта

==== Контрольная сумма отчёта 8734024CC3124D60C0F401CD7332512D94AE565BB61D6E06315E75C2E7569E8C ====

foobar2000 1.2.6 / Dynamic Range Meter 1.1.1
log date: 2015-06-15 13:12:17

------
Analyzed: Never The Bride / Jealousy
------

DR Peak RMS Duration Track
------
DR6 -0.30 dB -7.65 dB 3:07 01-Cocaine
DR6 -0.30 dB -7.89 dB 4:04 02-Baby Please Don't Go
DR5 -0.30 dB -7.45 dB 5:52 03-Like The Way I Do
DR6 -0.30 dB -8.39 dB 4:54 04-Jealousy
DR6 -0.30 dB -8.52 dB 6:38 05-Feels Like Making Love
DR7 -0.30 dB -9.23 dB 5:44 06-Me & Bobby
DR6 -0.30 dB -8.25 dB 5:07 07-Stay With Me Baby
DR6 -0.30 dB -8.34 dB 4:41 08-Don't Let me Be Misunderstood
DR6 -0.30 dB -8.44 dB 4:17 09-We Gotta Get Out Of This Place
DR6 -0.30 dB -7.47 dB 7:04 10-Sympathy
DR5 -0.30 dB -6.83 dB 4:31 11-It's A Long Way To Get To The Top
------

Number of tracks: 11
Official DR value: DR6

Samplerate: 44100 Hz
Channels: 2
Bits per sample: 16
Bitrate: 1046 kbps
Codec: FLAC

[CUETools log; Date: 15.06.2015 13:11:42; Version: 2.1.5]
[CTDB TOCID: 6jq3qXUeZnVKxMZ49KKhbb1f19A-] disk not present in database.
[AccurateRip ID: 00163584-00c3ffd5-9a0d1d0b] disk not present in database.

Track Peak [ CRC32 ] [W/O NULL] [ LOG ]
-- 96,6 [E5F843AA] [6F53617D] CRC32
01 96,6 [A0ED9EC1] [CD10AE06]
02 96,6 [EDC4675E] [257E0E6E]
03 96,6 [F933EA77] [7E568E6A]
04 96,6 [C42F5A9F] [1223A0AC]
05 96,6 [2F3FE4C0] [3055E358]
06 96,6 [03060287] [2E55FDC6]
07 96,6 [3448AA43] [6979CEC9]
08 96,6 [23BBE784] [36248D49]
09 96,6 [40400692] 6AF83E9
10 96,6 [567DBF22] [F77A7433]
11 96,6 [A2D8D54E] [8097778D]

Never The Bride - Jealousy (2015)


DOWNLOAD LINKS:


No Password
Direct Download

Tags: Jealousy

Never The Bride - Jealousy (2015) Download via Hotfile Rapidshare Fileserve Megaupload & FileSonic, Never The Bride - Jealousy (2015) free torrent downloads included crack, serial, keygen.Never The Bride - Jealousy (2015) Fast Download via Rapidshare Hotfile Fileserve Filesonic Megaupload, Never The Bride - Jealousy (2015) Torrents and Emule Download or anything related.
Leave a Comment
Your Name:
E-Mail:
Add Comments:

Enter Code: