The Rolling Stones - Sticky Fingers (1971) [2015, Super Deluxe Box Set]

Download Now

The Rolling Stones - Sticky Fingers (1971) [2015, Super Deluxe Box Set]

The Rolling Stones - Sticky Fingers (1971)
EAC | Flac(Image) + Cue + Log & MP3 CBR 320Kbps
3CD | Universal Music, 376 484 2 | ~ 1161 or 397 Mb | Scans(png) -> 2455 Mb
DVD5: ISO, NTSC 16:9 (720x480) VBR | Dolby AC3, 2ch, 192Kbps / 6ch, 448Kbps -> 1.16 Gb
Rock & Roll / Classic Rock

"Regarded as one of The Rolling Stones' all-time great albums, 'Sticky Fingers' captured the bands trademark combination of swagger and tenderness in a superb collection. The classic album features timeless songs such as 'Brown Sugar,' 'Wild Horses,' 'Bitch,' 'Sister Morphine' and 'Dead Flowers' and showcases the inventive song writing of Mick Jagger and Keith Richards and formidable guitar licks from Mick Taylor..."

The Rolling Stones - Sticky Fingers (1971) [2015, Super Deluxe Box Set]


~ amazon
"


Tracklist CD1 - Original Album:

01 Brown Sugar
02 Sway
03 Wild Horses
04 Can't You Hear Me Knocking
05 You Gotta Move
06 Bitch
07 I Got The Blues
08 Sister Morphine
09 Dead Flowers
10 Moonlight Mile

Exact Audio Copy V1.0 beta 6 from 9. April 2015

EAC extraction logfile from 13. June 2015, 18:53

The Rolling Stones / Sticky Fingers CD1

Used drive : PLEXTOR BD-R PX-B950SA Adapter: 1 ID: 1

Read mode : Secure
Utilize accurate stream : Yes
Defeat audio cache : Yes
Make use of C2 pointers : No

Read offset correction

: 6
Overread into Lead-In and Lead-Out : No
Fill up missing offset samples with silence : Yes
Delete leading and trailing silent blocks : No
Null samples used in CRC calculations : Yes
Used interface
: Native Win32 interface for Win NT & 2000

Used output format : Internal WAV Routines
Sample format : 44.100 Hz; 16 Bit; Stereo

TOC of the extracted CD Track | Start | Length | Start sector | End sector
1 | 0:00.00 | 3:49.07 | 0 | 17181 2 | 3:49.07 | 3:53.15 | 17182 | 34671 3 | 7:42.22 | 5:44.05 | 34672 | 60476 4 | 13:26.27 | 7:16.00 | 60477 | 93176 5 | 20:42.27 | 2:33.53 | 93177 | 104704 6 | 23:16.05 | 3:37.40 | 104705 | 121019 7 | 26:53.45 | 3:55.00 | 121020 | 138644 8 | 30:48.45 | 5:34.50 | 138645 | 163744 9 | 36:23.20 | 4:05.20 | 163745 | 182139
10 | 40:28.40 | 5:57.15 | 182140 | 208929

Range status and errors

Selected range Filename C:\Users\Meijin\Desktop\ALLexxess\The Rolling Stones\1971 Sticky Fingers (3CD + DVD + 7'' Vinyl Box Set UMe 2015)\CD1\The Rolling Stones - Sticky Fingers CD1.wav Peak level 99.8 %
Extraction speed 7.1 X
Range quality 100.0 %
Test CRC 5B498123
Copy CRC 5B498123
Copy OK

No errors occurred


AccurateRip summary

Track 1 accurately ripped (confidence 200) [408C4823] (AR v2)
Track 2 accurately ripped (confidence 200) [964B3BEB] (AR v2)
Track 3 accurately ripped (confidence 200) [179A3958] (AR v2)
Track 4 accurately ripped (confidence 200) [32955D4F] (AR v2)
Track 5 accurately ripped (confidence 200) [948570CF] (AR v2)
Track 6 accurately ripped (confidence 200) [9E87AFF4] (AR v2)
Track 7 accurately ripped (confidence 200) [AB3241AA] (AR v2)
Track 8 accurately ripped (confidence 200) [59DD465B] (AR v2)
Track 9 accurately ripped (confidence 200) [02F30394] (AR v2)
Track 10 accurately ripped (confidence 200) [E46CCB2B] (AR v2)

All tracks accurately ripped

End of status report

---- CUETools DB Plugin V2.1.6

[CTDB TOCID: q13kpAwpjwTfho2.qV4IMwlcfAk-] found
Submit result: q13kpAwpjwTfho2.qV4IMwlcfAk- has been confirmed
Track | CTDB Status
1 | (226/227) Accurately ripped
2 | (227/227) Accurately ripped
3 | (227/227) Accurately ripped
4 | (227/227) Accurately ripped
5 | (227/227) Accurately ripped
6 | (227/227) Accurately ripped
7 | (227/227) Accurately ripped
8 | (225/227) Accurately ripped, or (2/227) differs in 180 samples @03:00:70
9 | (227/227) Accurately ripped
10 | (226/227) Accurately ripped

==== Log checksum BAA5280ED3DBA2E29E802BBE6AF7E62D47BF9E03DD222B2536B87C94D68AC8CD ====

foobar2000 1.2.9 / Dynamic Range Meter 1.1.1
log date: 2015-06-14 14:57:08

------
Analyzed: The Rolling Stones / Sticky Fingers CD1
------

DR Peak RMS Duration Track
------
DR6 -0.01 dB -7.66 dB 3:49 01-Brown Sugar
DR5 -0.01 dB -6.34 dB 3:53 02-Sway
DR6 -0.11 dB -9.54 dB 5:44 03-Wild Horses
DR6 -0.11 dB -7.82 dB 7:16 04-Can't You Hear Me Knocking
DR10 -0.61 dB -12.88 dB 2:34 05-You Gotta Move
DR6 -0.11 dB -7.43 dB 3:38 06-Bitch
DR6 -0.01 dB -9.16 dB 3:55 07-I Got The Blues
DR7 -0.11 dB -10.13 dB 5:35 08-Sister Morphine
DR6 -0.11 dB -7.83 dB 4:05 09-Dead Flowers
DR6 -0.11 dB -8.98 dB 5:57 10-Moonlight Mile
------

Number of tracks: 10
Official DR value: DR6

Samplerate: 44100 Hz
Channels: 2
Bits per sample: 16
Bitrate: 896 kbps
Codec: FLAC

[CUETools log; Date: 14.06.2015 14:39:18; Version: 2.1.4]
[CTDB TOCID: q13kpAwpjwTfho2.qV4IMwlcfAk-] found.
Track | CTDB Status
1 | (230/231) Accurately ripped
2 | (231/231) Accurately ripped
3 | (231/231) Accurately ripped
4 | (231/231) Accurately ripped
5 | (231/231) Accurately ripped
6 | (231/231) Accurately ripped
7 | (231/231) Accurately ripped
8 | (229/231) Accurately ripped, or (2/231) differs in 180 samples @03:00:70
9 | (231/231) Accurately ripped
10 | (230/231) Accurately ripped
[AccurateRip ID: 00112955-0089b227-7a0ae10a] found.
Track [ CRC | V2 ] Status
01 [e38ea556|408c4823] (167+200/382) Accurately ripped
02 [39375dbe|964b3beb] (170+200/385) Accurately ripped
03 2043e89|179a3958 (168+200/383) Accurately ripped
04 [2e08bda2|32955d4f] (170+200/385) Accurately ripped
05 [6103c859|948570cf] (168+200/383) Accurately ripped
06 [374c6364|9e87aff4] (168+200/383) Accurately ripped
07 [f2e29166|ab3241aa] (170+200/385) Accurately ripped
08 [87e85d71|59dd465b] (171+200/386) Accurately ripped
09 [a1fbb542|02f30394] (169+200/384) Accurately ripped
10 [613db676|e46ccb2b] (167+200/381) Accurately ripped
Offsetted by -676:
01 [2bf67a38] (002/382) Accurately ripped
02 c3ba523 (002/385) Accurately ripped
03 [29914ed1] (002/383) Accurately ripped
04 [9eab8225] (002/385) Accurately ripped
05 [40b94f46] (002/383) Accurately ripped
06 [5d39381e] (002/383) Accurately ripped
07 [e49185fc] (002/385) Accurately ripped
08 4c5932a (002/386) Accurately ripped
09 [4369f78d] (002/384) Accurately ripped
10 [ad45db9d] (002/381) Accurately ripped
Offsetted by -12:
01 [c5d90f12] (002/382) Accurately ripped
02 c02b5d1 (002/385) Accurately ripped
03 0b10429 (002/383) Accurately ripped
04 [8f511ab7] (002/385) Accurately ripped
05 [3c3b10d7] (002/383) Accurately ripped
06 [6bf7b2ae] (002/383) Accurately ripped
07 [2dbd9f12] (002/385) Accurately ripped
08 [6e16a948] (002/386) Accurately ripped
09 [188f83cb] (002/384) Accurately ripped
10 [6946a4f4] (002/381) Accurately ripped
Offsetted by -6:
01 [d466c5c5] (000/382) No match (V2 was not tested)
02 [7a9d09c3] (000/385) No match (V2 was not tested)
03 0e6ddec (000/383) No match (V2 was not tested)
04 [f80d0adf] (000/385) No match (V2 was not tested)
05 [cfb62398] (000/383) No match (V2 was not tested)
06 [51a20b0c] (000/383) No match (V2 was not tested)
07 [10ee3aa4] (000/385) No match (V2 was not tested)
08 [7a8ee994] (000/386) No match (V2 was not tested)
09 [dd982209] (000/384) No match (V2 was not tested)
10 [e5ba569d] (000/381) No match (V2 was not tested)
Offsetted by 6:
01 [f1821c19] (000/382) No match (V2 was not tested)
02 [f86e9e16] (000/385) No match (V2 was not tested)
03 3219f26 (000/383) No match (V2 was not tested)
04 [9daae11e] (000/385) No match (V2 was not tested)
05 [f1e449e3] (000/383) No match (V2 was not tested)
06 [1cf6bbb2] (000/383) No match (V2 was not tested)
07 [d6132d09] (000/385) No match (V2 was not tested)
08 [937f6a29] (000/386) No match (V2 was not tested)
09 [67045388] (000/384) No match (V2 was not tested)
10 [dbd0c47e] (000/381) No match (V2 was not tested)

Track Peak [ CRC32 ] [W/O NULL] [ LOG ]
-- 99,8 [5B498123] [6BE8D6EA] CRC32
01 99,8 [6A31844D] [16CF7D4A]
02 99,8 [82D77656] [E887CE93]
03 98,7 [249CA95C] [04F90A01]
04 98,7 [F35804E9] [76535613]
05 93,2 180B330 [F8B9D7DD]
06 98,7 [3FDCA3DB] [DACEDEBE]
07 99,8 [5786647F] [5C6D8362]
08 98,7 [FBA4AD94] [8E98D6F1]
09 98,7 [87A792EA] [7FFC5899]
10 98,7 [51ADD960] [20AED13A]

The Rolling Stones - Sticky Fingers (1971) [2015, Super Deluxe Box Set]

Tracklist CD2 - Bonus Disc:

01 Brown Sugar (Alternate Version with Eric Clapton)
02 Wild Horses (Acoustic Version)
03 Can't You Hear Me Knocking (Alternate Version)
04 Bitch (Extended Version)
05 Dead Flowers (Alternate Version)
06 Live With Me (Live At The Roundhouse, 1971)
07 Stray Cat Blues (Live At The Roundhouse, 1971)
08 Love In Vain (Live At The Roundhouse, 1971)
09 Midnight Rambler (Live At The Roundhouse, 1971)
10 Honky Tonk Women (Live The Roundhouse, 1971)

Exact Audio Copy V1.0 beta 6 from 9. April 2015

EAC extraction logfile from 13. June 2015, 18:18

The Rolling Stones / Sticky Fingers CD2

Used drive : PLEXTOR BD-R PX-B950SA Adapter: 1 ID: 1

Read mode : Secure
Utilize accurate stream : Yes
Defeat audio cache : Yes
Make use of C2 pointers : No

Read offset correction

: 6
Overread into Lead-In and Lead-Out : No
Fill up missing offset samples with silence : Yes
Delete leading and trailing silent blocks : No
Null samples used in CRC calculations : Yes
Used interface
: Native Win32 interface for Win NT & 2000

Used output format : Internal WAV Routines
Sample format : 44.100 Hz; 16 Bit; Stereo

TOC of the extracted CD Track | Start | Length | Start sector | End sector
1 | 0:00.00 | 4:07.27 | 0 | 18551 2 | 4:07.27 | 5:47.37 | 18552 | 44613 3 | 9:54.64 | 3:24.06 | 44614 | 59919 4 | 13:18.70 | 5:52.45 | 59920 | 86364 5 | 19:11.40 | 4:17.67 | 86365 | 105706 6 | 23:29.32 | 4:22.03 | 105707 | 125359 7 | 27:51.35 | 3:48.15 | 125360 | 142474 8 | 31:39.50 | 6:42.00 | 142475 | 172624 9 | 38:21.50 | 11:26.52 | 172625 | 224126
10 | 49:48.27 | 4:14.31 | 224127 | 243207

Range status and errors

Selected range Filename C:\Users\Meijin\Desktop\ALLexxess\The Rolling Stones\1971 Sticky Fingers (3CD + DVD + 7'' Vinyl Box Set UMe 2015)\CD2\The Rolling Stones - Sticky Fingers CD2.wav Peak level 100.0 %
Extraction speed 7.4 X
Range quality 100.0 %
Test CRC F27F25C8
Copy CRC F27F25C8
Copy OK

No errors occurred


AccurateRip summary

Track 1 not present in database
Track 2 not present in database
Track 3 not present in database
Track 4 not present in database
Track 5 not present in database
Track 6 not present in database
Track 7 not present in database
Track 8 not present in database
Track 9 not present in database
Track 10 not present in database

None of the tracks are present in the AccurateRip database

End of status report

---- CUETools DB Plugin V2.1.6

[CTDB TOCID: v8v3.ToIXp6_GmDxXdQbtrKL0zY-] found
Submit result: v8v3.ToIXp6_GmDxXdQbtrKL0zY- has been confirmed
Track | CTDB Status
1 | (19/19) Accurately ripped
2 | (18/19) Accurately ripped
3 | (18/19) Accurately ripped
4 | (19/19) Accurately ripped
5 | (19/19) Accurately ripped
6 | (19/19) Accurately ripped
7 | (19/19) Accurately ripped
8 | (19/19) Accurately ripped
9 | (19/19) Accurately ripped
10 | (19/19) Accurately ripped

==== Log checksum 9A0664AD9B1941D2E0954A65AD66E7B02C1785648743FAEC227F3BC55D3C89CD ====

foobar2000 1.2.9 / Dynamic Range Meter 1.1.1
log date: 2015-06-14 14:57:26

------
Analyzed: The Rolling Stones / Sticky Fingers CD2
------

DR Peak RMS Duration Track
------
DR7 -0.16 dB -7.98 dB 4:07 01-Brown Sugar (Alternate Version with Eric Clapton)
DR7 -0.47 dB -10.19 dB 5:47 02-Wild Horses (Acoustic Version)
DR7 0.00 dB -8.43 dB 3:24 03-Can't You Hear Me Knocking (Alternate Version)
DR6 0.00 dB -6.36 dB 5:53 04-Bitch (Extended Version)
DR6 -0.12 dB -7.28 dB 4:18 05-Dead Flowers (Alternate Version)
DR5 0.00 dB -6.84 dB 4:22 06-Live With Me (Live At The Roundhouse, 1971)
DR6 0.00 dB -7.60 dB 3:48 07-Stray Cat Blues (Live At The Roundhouse, 1971)
DR7 0.00 dB -9.79 dB 6:42 08-Love In Vain (Live At The Roundhouse, 1971)
DR6 0.00 dB -7.86 dB 11:27 09-Midnight Rambler (Live At The Roundhouse, 1971)
DR7 0.00 dB -8.59 dB 4:14 10-Honky Tonk Women (Live The Roundhouse, 1971)
------

Number of tracks: 10
Official DR value: DR6

Samplerate: 44100 Hz
Channels: 2
Bits per sample: 16
Bitrate: 944 kbps
Codec: FLAC

[CUETools log; Date: 14.06.2015 14:41:19; Version: 2.1.4]
[CTDB TOCID: v8v3.ToIXp6_GmDxXdQbtrKL0zY-] found.
Track | CTDB Status
1 | (24/24) Accurately ripped
2 | (23/24) Accurately ripped
3 | (23/24) Accurately ripped
4 | (24/24) Accurately ripped
5 | (24/24) Accurately ripped
6 | (24/24) Accurately ripped
7 | (24/24) Accurately ripped
8 | (24/24) Accurately ripped
9 | (24/24) Accurately ripped
10 | (24/24) Accurately ripped
[AccurateRip ID: 0012a929-00980aa5-760caa0a] disk not present in database.

Track Peak [ CRC32 ] [W/O NULL] [ LOG ]
-- 100,0 [F27F25C8] [F831EF81] CRC32
01 98,1 4DB3D49 [31C5B7A1]
02 94,7 [6482C084] [2F2BA7FA]
03 100,0 [E006000D] [5CC6CFFA]
04 100,0 224A2BB [4C68EF01]
05 98,6 [AC23E182] [109C01D8]
06 100,0 [8E4CB4AF] [567B4EA3]
07 100,0 [5EC740ED] [32177C2B]
08 99,9 [081DEFE9] [C92AEF4B]
09 100,0 [34D1E895] [849FBFA3]
10 100,0 [5FCA99C5] [15A529E4]

The Rolling Stones - Sticky Fingers (1971) [2015, Super Deluxe Box Set]

Tracklist CD3 - Get Yer Leeds Lungs Out
Live At Leeds University, 1971:


01 Jumpin' Jack Flash
02 Live With Me
03 Dead Flowers
04 Stray Cat Blues
05 Love In Vain
06 Midnight Rambler
07 Bitch
08 Honky Tonk Women
09 (I Can't Get No) Satisfaction
10 Little Queenie
11 Brown Sugar
12 Street Fighting Man
13 Let It Rock

Exact Audio Copy V1.0 beta 6 from 9. April 2015

EAC extraction logfile from 13. June 2015, 17:49

The Rolling Stones / Sticky Fingers CD3

Used drive : PLEXTOR BD-R PX-B950SA Adapter: 1 ID: 1

Read mode : Secure
Utilize accurate stream : Yes
Defeat audio cache : Yes
Make use of C2 pointers : No

Read offset correction

: 6
Overread into Lead-In and Lead-Out : No
Fill up missing offset samples with silence : Yes
Delete leading and trailing silent blocks : No
Null samples used in CRC calculations : Yes
Used interface
: Native Win32 interface for Win NT & 2000

Used output format : Internal WAV Routines
Sample format : 44.100 Hz; 16 Bit; Stereo

TOC of the extracted CD Track | Start | Length | Start sector | End sector
1 | 0:00.00 | 3:59.17 | 0 | 17941 2 | 3:59.17 | 4:21.33 | 17942 | 37549 3 | 8:20.50 | 4:02.13 | 37550 | 55712 4 | 12:22.63 | 4:14.02 | 55713 | 74764 5 | 16:36.65 | 6:28.34 | 74765 | 103898 6 | 23:05.24 | 13:09.18 | 103899 | 163091 7 | 36:14.42 | 5:24.61 | 163092 | 187452 8 | 41:39.28 | 3:20.29 | 187453 | 202481 9 | 44:59.57 | 5:31.03 | 202482 | 227309
10 | 50:30.60 | 4:26.33 | 227310 | 247292
11 | 54:57.18 | 4:44.01 | 247293 | 268593
12 | 59:41.19 | 4:52.35 | 268594 | 290528
13 | 64:33.54 | 3:13.46 | 290529 | 305049

Range status and errors

Selected range Filename C:\Users\Meijin\Desktop\ALLexxess\The Rolling Stones\1971 Sticky Fingers (3CD + DVD + 7'' Vinyl Box Set UMe 2015)\CD3\The Rolling Stones - Sticky Fingers CD3.wav Peak level 100.0 %
Extraction speed 7.7 X
Range quality 99.9 %
Test CRC 9F88890F
Copy CRC 9F88890F
Copy OK

No errors occurred


AccurateRip summary

Track 1 not present in database
Track 2 not present in database
Track 3 not present in database
Track 4 not present in database
Track 5 not present in database
Track 6 not present in database
Track 7 not present in database
Track 8 not present in database
Track 9 not present in database
Track 10 not present in database
Track 11 not present in database
Track 12 not present in database
Track 13 not present in database

None of the tracks are present in the AccurateRip database

End of status report

---- CUETools DB Plugin V2.1.6

[CTDB TOCID: nHUR2sXtAgaBA0MfrH5I4bKMzn0-] found
Submit result: nHUR2sXtAgaBA0MfrH5I4bKMzn0- has been confirmed
Track | CTDB Status
1 | (4/4) Accurately ripped
2 | (4/4) Accurately ripped
3 | (4/4) Accurately ripped
4 | (4/4) Accurately ripped
5 | (4/4) Accurately ripped
6 | (4/4) Accurately ripped
7 | (4/4) Accurately ripped
8 | (4/4) Accurately ripped
9 | (4/4) Accurately ripped
10 | (4/4) Accurately ripped
11 | (4/4) Accurately ripped
12 | (4/4) Accurately ripped
13 | (4/4) Accurately ripped

==== Log checksum 9E055B063962AD476811E6E8A4C2C951E22C3531F168D3CCF59936800738A7B2 ====

foobar2000 1.2.9 / Dynamic Range Meter 1.1.1
log date: 2015-06-14 14:57:43

------
Analyzed: The Rolling Stones / Sticky Fingers CD3
------

DR Peak RMS Duration Track
------
DR7 0.00 dB -8.31 dB 3:59 01-Jumpin’ Jack Flash
DR6 0.00 dB -7.41 dB 4:21 02-Live With Me
DR6 -0.06 dB -7.19 dB 4:02 03-Dead Flowers
DR7 -0.02 dB -8.51 dB 4:14 04-Stray Cat Blues
DR8 0.00 dB -10.84 dB 6:28 05-Love In Vain
DR6 0.00 dB -8.33 dB 13:09 06-Midnight Rambler
DR5 0.00 dB -7.17 dB 5:25 07-Bitch
DR5 0.00 dB -6.57 dB 3:20 08-Honky Tonk Women
DR6 0.00 dB -6.62 dB 5:31 09-(I Can’t Get No) Satisfaction
DR6 0.00 dB -7.22 dB 4:26 10-Little Queenie
DR6 0.00 dB -7.14 dB 4:44 11-Brown Sugar
DR6 0.00 dB -7.10 dB 4:52 12-Street Fighting Man
DR6 0.00 dB -7.21 dB 3:14 13-Let It Rock
------

Number of tracks: 13
Official DR value: DR6

Samplerate: 44100 Hz
Channels: 2
Bits per sample: 16
Bitrate: 954 kbps
Codec: FLAC

[CUETools log; Date: 14.06.2015 14:43:50; Version: 2.1.4]
[CTDB TOCID: nHUR2sXtAgaBA0MfrH5I4bKMzn0-] found.
Track | CTDB Status
1 | (5/5) Accurately ripped
2 | (5/5) Accurately ripped
3 | (5/5) Accurately ripped
4 | (5/5) Accurately ripped
5 | (5/5) Accurately ripped
6 | (5/5) Accurately ripped
7 | (5/5) Accurately ripped
8 | (5/5) Accurately ripped
9 | (5/5) Accurately ripped
10 | (5/5) Accurately ripped
11 | (5/5) Accurately ripped
12 | (5/5) Accurately ripped
13 | (5/5) Accurately ripped
[AccurateRip ID: 00214a28-01512970-b70fe30d] disk not present in database.

Track Peak [ CRC32 ] [W/O NULL] [ LOG ]
-- 100,0 [9F88890F] [AADEF40E] CRC32
01 100,0 [81F91F5F] [45A4A3CD]
02 100,0 [82816698] [4E91D6F2]
03 99,3 [8CE4C087] [E11E2BC0]
04 99,7 [E33554ED] [4F8852D0]
05 100,0 [7A84EFAF] [8484746E]
06 100,0 [F0BDE4F3] [82CC8810]
07 100,0 [2B9A921E] C2B3C8C
08 100,0 [30BA00DC] [EF028401]
09 100,0 [326A585D] [117D1E8F]
10 100,0 [EAFA3217] [5CF782FF]
11 100,0 [DB5930D8] [FAE66832]
12 100,0 [32EA04B9] [90607101]
13 100,0 [A13A2AD9] [D3DD964C]

The Rolling Stones - Sticky Fingers (1971) [2015, Super Deluxe Box Set]

Tracklist DVD - Live At The Marquee Club, 1971:

01 Midnight Rambler
02 Bitch

Title:
Size: 1.10 Gb ( 1157328,00 KBytes ) - DVD-5
Enabled regions: 1, 2, 3, 4, 5, 6, 7, 8

VTS_01 :
Play Length: 00:00:08+00:00:00
Video: NTSC 16:9 (720x480) VBR, Auto Letterboxed

VTS_02 :
Play Length: 00:14:34
Video: NTSC 4:3 (720x480) VBR
Audio:
English (Dolby AC3, 2 ch)
English (Dolby AC3, 6 ch)

The Rolling Stones - Sticky Fingers (1971) [2015, Super Deluxe Box Set]

The Rolling Stones - Sticky Fingers (1971) [2015, Super Deluxe Box Set]

The Rolling Stones - Sticky Fingers (1971) [2015, Super Deluxe Box Set]

The Rolling Stones - Sticky Fingers (1971) [2015, Super Deluxe Box Set]

DOWNLOAD LINKS
Buy Premium From My Links To Get Resumable Support & Max Speed & To Support Me

Rapidgator.net:
http://rapidgator.net/file/7dac537a4413c99b22e18f981ab5a104/uu6gp.RS71SFSDECD1flac.rar.html
http://rapidgator.net/file/0ea22a98f387d4ef799929fc0fb6306e/uu6gp.RS71SFSDECD1mp3320.rar.html
http://rapidgator.net/file/ff51f9361436e1ab2670ba527bf13496/uu6gp.RS71SFSDECD2flac.rar.html
http://rapidgator.net/file/acb901c5de38b83b415367a04b6f687a/uu6gp.RS71SFSDECD2mp3320.rar.html
http://rapidgator.net/file/55c3a0d9fbd6dc3efe752372ca8879dd/uu6gp.RS71SFSDECD3flac.rar.html
http://rapidgator.net/file/b31cd34b42b38f34afc2335b3d32f334/uu6gp.RS71SFSDECD3mp3320.rar.html
http://rapidgator.net/file/f4432e782273b3d5567592d4ce9f45dd/uu6gp.RS71SFSDEDVD.part1.rar.html
http://rapidgator.net/file/0a708c74337411128e964ef16ac775f4/uu6gp.RS71SFSDEDVD.part2.rar.html
http://rapidgator.net/file/9670a274a964f10d4c7a99b1b08bd484/uu6gp.RS71SFSDEScans.part1.rar.html
http://rapidgator.net/file/522e570777fab431b4e0adb881a8eeeb/uu6gp.RS71SFSDEScans.part2.rar.html
http://rapidgator.net/file/bd155db539b161b483f8527ccccc375e/uu6gp.RS71SFSDEScans.part3.rar.html
http://rapidgator.net/file/d9a9476a87e2d388f2ed39b0582ae237/uu6gp.RS71SFSDEScans.part4.rar.html
http://rapidgator.net/file/11dc148408865b3fb4282d613454bbfa/uu6gp.RS71SFSDEScans.part5.rar.html

Uploaded.net:
http://uploaded.net/file/98zfijeq/uu6gp.RS71SFSDECD1flac.rar
http://uploaded.net/file/tssb9fwq/uu6gp.RS71SFSDECD1mp3320.rar
http://uploaded.net/file/mcpwqlal/uu6gp.RS71SFSDECD2flac.rar
http://uploaded.net/file/curgk7j4/uu6gp.RS71SFSDECD2mp3320.rar
http://uploaded.net/file/z66zcre8/uu6gp.RS71SFSDECD3flac.rar
http://uploaded.net/file/eezf3hi2/uu6gp.RS71SFSDECD3mp3320.rar
http://uploaded.net/file/3jha8tnm/uu6gp.RS71SFSDEDVD.part1.rar
http://uploaded.net/file/c1niaitb/uu6gp.RS71SFSDEDVD.part2.rar
http://uploaded.net/file/g20la1tf/uu6gp.RS71SFSDEScans.part1.rar
http://uploaded.net/file/k1rmofog/uu6gp.RS71SFSDEScans.part2.rar
http://uploaded.net/file/za05h6fc/uu6gp.RS71SFSDEScans.part3.rar
http://uploaded.net/file/5y4xyv46/uu6gp.RS71SFSDEScans.part4.rar
http://uploaded.net/file/rsenl7nr/uu6gp.RS71SFSDEScans.part5.rar

Uploadable.ch:
http://www.uploadable.ch/file/rbKpcbzMESXk/uu6gp.RS71SFSDECD1flac.rar
http://www.uploadable.ch/file/fawVR3aabGCn/uu6gp.RS71SFSDECD1mp3320.rar
http://www.uploadable.ch/file/gSVWytdMtJpP/uu6gp.RS71SFSDECD2flac.rar
http://www.uploadable.ch/file/p5ZnaHh9aArC/uu6gp.RS71SFSDECD2mp3320.rar
http://www.uploadable.ch/file/MfFgTk38XQ5T/uu6gp.RS71SFSDECD3flac.rar
http://www.uploadable.ch/file/VSXhBjkHGNVF/uu6gp.RS71SFSDECD3mp3320.rar
http://www.uploadable.ch/file/ZHn54Esk2GhN/uu6gp.RS71SFSDEDVD.part1.rar
http://www.uploadable.ch/file/SVQPpaftJbJW/uu6gp.RS71SFSDEDVD.part2.rar
http://www.uploadable.ch/file/VWebeEHJNZDf/uu6gp.RS71SFSDEScans.part1.rar
http://www.uploadable.ch/file/Khk7EcWQSwgh/uu6gp.RS71SFSDEScans.part2.rar
http://www.uploadable.ch/file/egyq5XGzFxeW/uu6gp.RS71SFSDEScans.part3.rar
http://www.uploadable.ch/file/qBte9mVHzNzT/uu6gp.RS71SFSDEScans.part4.rar
http://www.uploadable.ch/file/mVH9QF5BR4Ku/uu6gp.RS71SFSDEScans.part5.rar

Links are Interchangeable - No Password - Single Extraction
Direct Download

Tags: Rolling, Stones, Sticky, Fingers, Deluxe

The Rolling Stones - Sticky Fingers (1971) [2015, Super Deluxe Box Set] Download via Hotfile Rapidshare Fileserve Megaupload & FileSonic, The Rolling Stones - Sticky Fingers (1971) [2015, Super Deluxe Box Set] free torrent downloads included crack, serial, keygen.The Rolling Stones - Sticky Fingers (1971) [2015, Super Deluxe Box Set] Fast Download via Rapidshare Hotfile Fileserve Filesonic Megaupload, The Rolling Stones - Sticky Fingers (1971) [2015, Super Deluxe Box Set] Torrents and Emule Download or anything related.
Leave a Comment
Your Name:
E-Mail:
Add Comments:

Enter Code: