Arthur Brown & Richard Wahnfried (Klaus Schulze) - Time Actor (1979) [Reissue 2011]

Download Now

Arthur Brown & Richard Wahnfried (Klaus Schulze) - Time Actor (1979) [Reissue 2011]

Arthur Brown & Richard Wahnfried (Klaus Schulze) - Time Actor (1979) [Reissue 2011]
EAC Rip | FLAC (tracks+.cue+log) - 393 MB | MP3 CBR 320 kbps (LAME 3.93) - 135 MB | Covers - 51 MB
Genre: Progressive Electronic | RAR 3% Rec. | Label: Esoteric Recordings (ECLEC2282)

"One of the great overlooked albums of the 1970s, Time Actor was the result of a collaboration between legendary Crazy World & Kingdom Come visionary Arthur Brown and German Synthesiser and Ambient genius Klaus Schulze, recording under the pseudonym of his alter-ego Richard Wahnfried. The resulting record was a unique fusion of Brown's amazing vocals and eccentric musical visions and Schulze's innovative keyboard playing. Originally released on the German Innovative Communication label, Time Actor also features special guest Vincent Crane (who recorded a collaborative album with Arthur Brown for the label during this period). This newly re-mastered reissue restores the original album artwork and includes a new essay."

Tracklist:
01. Time Actor
02. Time Factory
03. Charming the Wind
04. Grandma's Clock
05. Distorted Emission I
06. The Silent Sound of the Ground
07. Time Echoes

Total time: 57:29

Exact Audio Copy V1.0 beta 1 from 15. November 2010

EAC extraction logfile from 9. July 2011, 12:59

Arthur Brown & Richard Wahnfried / Time Actor

Used drive : _NEC DVD_RW ND-3540A Adapter: 3 ID: 1

Read mode : Secure
Utilize accurate stream : Yes
Defeat audio cache : Yes
Make use of C2 pointers : No

Read offset correction

: 48
Overread into Lead-In and Lead-Out : No
Fill up missing offset samples with silence : Yes
Delete leading and trailing silent blocks : No
Null samples used in CRC calculations : No
Used interface
: Native Win32 interface for Win NT & 2000
Gap handling
: Appended to previous track

Used output format : User Defined Encoder
Selected bitrate : 1024 kBit/s
Quality : High
Add ID3 tag : Yes
Command line compressor : C:\Program Files\FLAC\flac.exe
Additional command line options : -6 -V -T "ARTIST=%a" -T "TITLE=%t" -T "ALBUM=%g" -T "DATE=%y" -T "TRACKNUMBER=%n" -T "GENRE=%m" -T "COMMENT=%e" %s -o %d

TOC of the extracted CD Track | Start | Length | Start sector | End sector
1 | 0:00.00 | 8:58.65 | 0 | 40414 2 | 8:58.65 | 10:39.35 | 40415 | 88374 3 | 19:38.25 | 4:48.35 | 88375 | 110009 4 | 24:26.60 | 4:09.05 | 110010 | 128689 5 | 28:35.65 | 5:30.06 | 128690 | 153445 6 | 34:05.71 | 15:00.40 | 153446 | 220985 7 | 49:06.36 | 8:22.49 | 220986 | 258684

Track 1 Filename D:\Music\olaf_alien\Arthur Brown & Richard Wahnfried - Time Actor (1979, Innovative Communication - 2011, Esoteric Rec.)\01 - Time Actor.wav Pre-gap length 0:00:02.00 Peak level 99.4 %
Extraction speed 5.3 X
Track quality 100.0 %
Test CRC A5D2721E
Copy CRC A5D2721E
Track not present in AccurateRip database
Copy OK

Track 2 Filename D:\Music\olaf_alien\Arthur Brown & Richard Wahnfried - Time Actor (1979, Innovative Communication - 2011, Esoteric Rec.)\02 - Time Factory.wav Pre-gap length 0:00:00.63 Peak level 99.4 %
Extraction speed 6.4 X
Track quality 100.0 %
Test CRC 668E8818
Copy CRC 668E8818
Track not present in AccurateRip database
Copy OK

Track 3 Filename D:\Music\olaf_alien\Arthur Brown & Richard Wahnfried - Time Actor (1979, Innovative Communication - 2011, Esoteric Rec.)\03 - Charming the Wind.wav Pre-gap length 0:00:02.40 Peak level 99.4 %
Extraction speed 6.6 X
Track quality 100.0 %
Test CRC 45CFB5FD
Copy CRC 45CFB5FD
Track not present in AccurateRip database
Copy OK

Track 4 Filename D:\Music\olaf_alien\Arthur Brown & Richard Wahnfried - Time Actor (1979, Innovative Communication - 2011, Esoteric Rec.)\04 - Grandma's Clock.wav Pre-gap length 0:00:01.50 Peak level 99.4 %
Extraction speed 5.6 X
Track quality 99.9 %
Test CRC A3453304
Copy CRC A3453304
Track not present in AccurateRip database
Copy OK

Track 5 Filename D:\Music\olaf_alien\Arthur Brown & Richard Wahnfried - Time Actor (1979, Innovative Communication - 2011, Esoteric Rec.)\05 - Distorted Emission I.wav Pre-gap length 0:00:01.73 Peak level 99.4 %
Extraction speed 6.4 X
Track quality 99.9 %
Test CRC D705D3A0
Copy CRC D705D3A0
Track not present in AccurateRip database
Copy OK

Track 6 Filename D:\Music\olaf_alien\Arthur Brown & Richard Wahnfried - Time Actor (1979, Innovative Communication - 2011, Esoteric Rec.)\06 - The Silent Sound of the Ground.wav Pre-gap length 0:00:01.65 Peak level 99.4 %
Extraction speed 8.1 X
Track quality 99.9 %
Test CRC 2810431E
Copy CRC 2810431E
Track not present in AccurateRip database
Copy OK

Track 7 Filename D:\Music\olaf_alien\Arthur Brown & Richard Wahnfried - Time Actor (1979, Innovative Communication - 2011, Esoteric Rec.)\07 - Time Echoes.wav Pre-gap length 0:00:01.72 Peak level 99.4 %
Extraction speed 9.0 X
Track quality 100.0 %
Test CRC 56DDACC7
Copy CRC 56DDACC7
Track not present in AccurateRip database
Copy OK

None of the tracks are present in the AccurateRip database

No errors occurred

End of status report

[CUETools log; Date: 15.06.2015 16:13:21; Version: 2.1.4]
[CTDB TOCID: 1eC5GVv59o883U0agTRclISYmuI-] found.
Track | CTDB Status
1 | (4/4) Accurately ripped
2 | (4/4) Accurately ripped
3 | (4/4) Accurately ripped
4 | (4/4) Accurately ripped
5 | (4/4) Accurately ripped
6 | (4/4) Accurately ripped
7 | (4/4) Accurately ripped
[AccurateRip ID: 000f449f-005b0aa8-5c0d7907] found.
Track [ CRC | V2 ] Status
01 [71ae2753|ec8d7e02] (0+4/4) Accurately ripped
02 [5b4ff093|f7fcbff5] (0+4/4) Accurately ripped
03 [76fccb2c|781bf154] (0+4/4) Accurately ripped
04 [8ea515ff|9c955b08] (0+4/4) Accurately ripped
05 [56766837|6002de56] (0+4/4) Accurately ripped
06 [d199e386|460fe759] (0+4/4) Accurately ripped
07 [8cf8f110|3a247668] (0+4/4) Accurately ripped

Track Peak [ CRC32 ] [W/O NULL] [ LOG ]
-- 99,4 [007B8436] [F0460572]
01 99,4 [AA0961CF] [A5D2721E] W/O NULL
02 99,4 [E86408B4] [668E8818] W/O NULL
03 99,4 37D2CFB [45CFB5FD] W/O NULL
04 99,4 [F8B6F9DC] [A3453304] W/O NULL
05 99,4 [FB94F36F] [D705D3A0] W/O NULL
06 99,4 [D8BA1E4B] [2810431E] W/O NULL
07 99,4 [71A9678B] [56DDACC7] W/O NULL

Thanks to olaf_alien
DOWNLOAD:
Buy Premium From My Links To Get Resumable Support & Max Speed & To Support Me


Links are Interchangeable - No Password
Direct Download

Tags: Arthur, Richard, Wahnfried, Schulze, Reissue

Arthur Brown & Richard Wahnfried (Klaus Schulze) - Time Actor (1979) [Reissue 2011] Download via Hotfile Rapidshare Fileserve Megaupload & FileSonic, Arthur Brown & Richard Wahnfried (Klaus Schulze) - Time Actor (1979) [Reissue 2011] free torrent downloads included crack, serial, keygen.Arthur Brown & Richard Wahnfried (Klaus Schulze) - Time Actor (1979) [Reissue 2011] Fast Download via Rapidshare Hotfile Fileserve Filesonic Megaupload, Arthur Brown & Richard Wahnfried (Klaus Schulze) - Time Actor (1979) [Reissue 2011] Torrents and Emule Download or anything related.
Leave a Comment
Your Name:
E-Mail:
Add Comments:

Enter Code: