Alejandro Sanz - El Tren De Los Momentos (2006)

Download Now

Alejandro Sanz - El Tren De Los Momentos (2006)

Alejandro Sanz - El Tren De Los Momentos (2006)
EAC Rip | FLAC with CUE and log | scans | 278mb
MP3 CBR 320kbps | RAR | 117mb
Genre: Latin pop, Spanish pop

El Tren De Los Momentos is the 7th long playing recording by Spanish pop senstation Alejandro Sanz. The album won a Best Latin Pop Album at the 50th Grammy Awards, and spawned four singles: "A la Primera Persona", "Te Lo Agradezco, Pero No", "Enséñame Tus Manos", and "En la Planta de Tus Pies". It went quadruple platinum in his native Spain, with sales of 320,000, sold 150,000 in Mexico and 100,000 in the United States.
Alejandro Sanz - El Tren De Los Momentos (2006)

01. Enséñame Tus Manos
02. A La Primera Persona
03. Te Lo Agradezco, Pero No (featuring Shakira)
04. Donde Convergemos
05. En La Planta De Tus Pies
06. La Peleíta (featuring Juanes)
07. Se Lo Dices Tú
08. Se Molestan
09. Te Quiero Y Te Temo
10. El Tren De Los Momentos

Alejandro Sanz - El Tren De Los Momentos (2006)



EAC extraction logfile from 24. January 2007, 18:33 for CD
Alejandro Sanz / El Tren De Los Momentos

Used drive : LITE-ON DVDRW SOHW-1633S Adapter: 0 ID: 0
Read mode : Secure with NO C2, accurate stream, disable cache
Read offset correction : 12
Overread into Lead-In and Lead-Out : No

Used output format : Internal WAV Routines 44.100 Hz; 16 Bit; Stereo

Other options :
Fill up missing offset samples with silence : Yes
Delete leading and trailing silent blocks : No
Installed external ASPI interface

Track 1
Filename D:\FLAC\Alejandro Sanz - El Tren De Los Momentos (2006) [FLAC]\01 - Ensename Tus Manos.wav Pre-gap length 0:00:02.00 Peak level 98.8 %
Track quality 100.0 %
Test CRC 7BD0EA30
Copy CRC 7BD0EA30
Copy OK

Track 2
Filename D:\FLAC\Alejandro Sanz - El Tren De Los Momentos (2006) [FLAC]\02 - A La Primera Persona.wav Peak level 98.8 %
Track quality 100.0 %
Test CRC 35E4E2CD
Copy CRC 35E4E2CD
Copy OK

Track 3
Filename D:\FLAC\Alejandro Sanz - El Tren De Los Momentos (2006) [FLAC]\03 - Te Lo Agradezco, Pero No.wav Peak level 98.8 %
Track quality 100.0 %
Test CRC 28742B0A
Copy CRC 28742B0A
Copy OK

Track 4
Filename D:\FLAC\Alejandro Sanz - El Tren De Los Momentos (2006) [FLAC]\04 - Donde Convergemos.wav Pre-gap length 0:00:01.13 Peak level 96.6 %
Track quality 100.0 %
Test CRC DF53309F
Copy CRC DF53309F
Copy OK

Track 5
Filename D:\FLAC\Alejandro Sanz - El Tren De Los Momentos (2006) [FLAC]\05 - En La Planta De Tus Pies.wav Peak level 98.8 %
Track quality 99.9 %
Test CRC 62EED75D
Copy CRC 62EED75D
Copy OK

Track 6
Filename D:\FLAC\Alejandro Sanz - El Tren De Los Momentos (2006) [FLAC]\06 - La Peleita.wav Peak level 98.8 %
Track quality 100.0 %
Test CRC 38BD4E3A
Copy CRC 38BD4E3A
Copy OK

Track 7
Filename D:\FLAC\Alejandro Sanz - El Tren De Los Momentos (2006) [FLAC]\07 - Se Lo Dices Tu.wav Pre-gap length 0:00:01.73 Peak level 98.8 %
Track quality 100.0 %
Test CRC 0951A0CC
Copy CRC 0951A0CC
Copy OK

Track 8
Filename D:\FLAC\Alejandro Sanz - El Tren De Los Momentos (2006) [FLAC]\08 - Se Molestan.wav Peak level 98.8 %
Track quality 100.0 %
Test CRC AE0234D3
Copy CRC AE0234D3
Copy OK

Track 9
Filename D:\FLAC\Alejandro Sanz - El Tren De Los Momentos (2006) [FLAC]\09 - Te Quiero Y Te Temo.wav Pre-gap length 0:00:01.82 Peak level 98.8 %
Track quality 100.0 %
Test CRC 7AE8EB2C
Copy CRC 7AE8EB2C
Copy OK

Track 10
Filename D:\FLAC\Alejandro Sanz - El Tren De Los Momentos (2006) [FLAC]\10 - El Tren De Los Momentos.wav Peak level 98.8 %
Track quality 100.0 %
Test CRC 69C34CFD
Copy CRC 69C34CFD
Copy OK

No errors occured

End of status report
DOWNLOAD LINKS
Buy Premium From My Links To Get Resumable Support & Max Speed & To Support Me


Links are Interchangeable - No Password - Single Extraction
Direct Download

Tags: Alejandro, Momentos

Alejandro Sanz - El Tren De Los Momentos (2006) Download via Hotfile Rapidshare Fileserve Megaupload & FileSonic, Alejandro Sanz - El Tren De Los Momentos (2006) free torrent downloads included crack, serial, keygen.Alejandro Sanz - El Tren De Los Momentos (2006) Fast Download via Rapidshare Hotfile Fileserve Filesonic Megaupload, Alejandro Sanz - El Tren De Los Momentos (2006) Torrents and Emule Download or anything related.
Leave a Comment
Your Name:
E-Mail:
Add Comments:

Enter Code: