Hot Tuna - Final Vinyl (1979) [Japanese Reissue, 2008]

Download Now

Hot Tuna - Final Vinyl (1979) [Japanese Reissue, 2008]

Hot Tuna - Final Vinyl (1979) [Japanese Reissue, 2008]
EAC Rip | FLAC: Tracks+Cue+Log | 330 Mb | MP3 CBR 320 kbps | 114 Mb | Scans | 28 Mb | Time: 44:05
Genre: Rock, Blues Rock, Hard Rock | Label: BMG Japan, Inc. | Cat.№: BVCM-35467

"Final Vinyl is a Hot Tuna compilation album. At the time the album was assembled, Jorma Kaukonen and Jack Casady had stopped performing together and were on to newer endeavours. Kaukonen recorded a solo album, Jorma, and Casady joined the band SVT. Kaukonen signed to RCA Records and Casady moved to 415 Records. This marked the end of Hot Tuna on the Jefferson Airplane owned Grunt Records, so a "final" compilation album was assembled."



Track Listing

01. Hesitation Blues (05:02)
02. Candy Man (04:00)
03. Keep On Truckin' (03:40)
04. Water Song (05:16)
05. Day To Day Out The Window Blues (03:26)
06. Easy Now (05:11)
07. Funky #7 (05:48)
08. Hot Jelly Roll Blues (03:09)
09. Song From The Stainless Cymbal (03:59)
10. I Wish You Would (04:29)

Produced by Pat Ieraci (Maurice)

The Band

* Jorma Kaukonen - guitars, vocals
* Jack Casady - bass
* Bob Steeler - drums

Notes

Jefferson Family Original Album Paper Sleeve Collection

2008 Japanese exclusive limited edition 10-track 24-Bit digitally remastered CD album from Jefferson Airplane's Jack Casady and Jorma Kaukonen, originally released in 1979, presented in mini LP-style card sleeve + obi strip.

Exact Audio Copy V0.99 prebeta 4 from 23. January 2008

EAC extraction logfile from 2. October 2008, 10:53

Hot Tuna / Final Vinyl

Used drive : PIONEER DVD-RW DVR-112D Adapter: 0 ID: 1

Read mode : Secure
Utilize accurate stream : Yes
Defeat audio cache : Yes
Make use of C2 pointers : No

Read offset correction

: 48
Overread into Lead-In and Lead-Out : No
Fill up missing offset samples with silence : Yes
Delete leading and trailing silent blocks : No
Null samples used in CRC calculations : Yes
Used interface
: Installed external ASPI interface
Gap handling
: Appended to previous track

Used output format : Internal WAV Routines
Sample format : 44.100 Hz; 16 Bit; Stereo

TOC of the extracted CD Track | Start | Length | Start sector | End sector
1 | 0:00.00 | 5:02.36 | 0 | 22685 2 | 5:02.36 | 4:00.64 | 22686 | 40749 3 | 9:03.25 | 3:40.47 | 40750 | 57296 4 | 12:43.72 | 5:16.44 | 57297 | 81040 5 | 18:00.41 | 3:26.39 | 81041 | 96529 6 | 21:27.05 | 5:11.35 | 96530 | 119889 7 | 26:38.40 | 5:48.05 | 119890 | 145994 8 | 32:26.45 | 3:09.53 | 145995 | 160222 9 | 35:36.23 | 3:59.21 | 160223 | 178168
10 | 39:35.44 | 4:29.34 | 178169 | 198377

Track 1 Filename P:\Hot Tuna\Final Vinyl\01 - Hesitation Blues.wav Pre-gap length 0:00:02.00 Peak level 100.0 %
Track quality 99.9 %
Test CRC B577AEAF
Copy CRC B577AEAF
Track not present in AccurateRip database
Copy OK

Track 2 Filename P:\Hot Tuna\Final Vinyl\02 - Candy Man.wav Peak level 100.0 %
Track quality 100.0 %
Test CRC 873B2F80
Copy CRC 873B2F80
Track not present in AccurateRip database
Copy OK

Track 3 Filename P:\Hot Tuna\Final Vinyl\03 - Keep On Truckin'.wav Pre-gap length 0:00:01.20 Peak level 100.0 %
Track quality 100.0 %
Test CRC F5105AF4
Copy CRC F5105AF4
Track not present in AccurateRip database
Copy OK

Track 4 Filename P:\Hot Tuna\Final Vinyl\04 - Water Song.wav Pre-gap length 0:00:01.08 Peak level 91.1 %
Track quality 100.0 %
Test CRC 316AD385
Copy CRC 316AD385
Track not present in AccurateRip database
Copy OK

Track 5 Filename P:\Hot Tuna\Final Vinyl\05 - Day to Day Out the Window Blues.wav Pre-gap length 0:00:01.15 Peak level 100.0 %
Track quality 99.9 %
Test CRC 895CC83A
Copy CRC 895CC83A
Track not present in AccurateRip database
Copy OK

Track 6 Filename P:\Hot Tuna\Final Vinyl\06 - Easy Now.wav Pre-gap length 0:00:01.45 Peak level 100.0 %
Track quality 99.9 %
Test CRC 68413727
Copy CRC 68413727
Track not present in AccurateRip database
Copy OK

Track 7 Filename P:\Hot Tuna\Final Vinyl\07 - Funky #7.wav Pre-gap length 0:00:01.17 Peak level 100.0 %
Track quality 100.0 %
Test CRC 64A0C387
Copy CRC 64A0C387
Track not present in AccurateRip database
Copy OK

Track 8 Filename P:\Hot Tuna\Final Vinyl\08 - Hot Jelly Roll Blues.wav Pre-gap length 0:00:01.41 Peak level 100.0 %
Track quality 100.0 %
Test CRC 47D96412
Copy CRC 47D96412
Track not present in AccurateRip database
Copy OK

Track 9 Filename P:\Hot Tuna\Final Vinyl\09 - Song from the Stainless Cymbal.wav Pre-gap length 0:00:01.53 Peak level 100.0 %
Track quality 100.0 %
Test CRC 108D3F48
Copy CRC 108D3F48
Track not present in AccurateRip database
Copy OK

Track 10 Filename P:\Hot Tuna\Final Vinyl\10 - I Wish You Would.wav Pre-gap length 0:00:01.29 Peak level 100.0 %
Track quality 100.0 %
Test CRC 1A5E9DF5
Copy CRC 1A5E9DF5
Track not present in AccurateRip database
Copy OK

None of the tracks are present in the AccurateRip database

No errors occurred

End of status report

Many thanks to the original uploader: vmsn
DOWNLOAD LINKS
Buy Premium From My Links To Get Resumable Support & Max Speed & To Support Me


Links are Interchangeable - No Password - Single Extraction
Direct Download

Tags: Japanese, Reissue

Hot Tuna - Final Vinyl (1979) [Japanese Reissue, 2008] Download via Hotfile Rapidshare Fileserve Megaupload & FileSonic, Hot Tuna - Final Vinyl (1979) [Japanese Reissue, 2008] free torrent downloads included crack, serial, keygen.Hot Tuna - Final Vinyl (1979) [Japanese Reissue, 2008] Fast Download via Rapidshare Hotfile Fileserve Filesonic Megaupload, Hot Tuna - Final Vinyl (1979) [Japanese Reissue, 2008] Torrents and Emule Download or anything related.
Leave a Comment
Your Name:
E-Mail:
Add Comments:

Enter Code: