Carole King - Fantasy (1973) [2007, Japanese Paper Sleeve]

Download Now

Carole King - Fantasy (1973) [2007, Japanese Paper Sleeve]

Carole King - Fantasy (1973) [2007, Japanese Paper Sleeve]
Pop/Rock, Singer/Songwriter | EAC Rip | FLAC, Tracks+CUE + LOG + Covers-600dpi (JPEG) | 45:14 Min | 279,65 Mb
Label: Epic (Japan) | Released: 2007, October, 31

"
Fantasy is an album by American singer-songwriter Carole King, released in 1973. At the time of its release, it only reached #6 on the Billboard album chart, but has remained highly regarded by her fans over the ensuing decades. Presented as a sort of song cycle, the album opens and closes with two versions of the title song and the songs on each side segue directly into one another. The Spanish language track "Corazón" (the Spanish word for "heart," also used as a term of endearment, as in this song's lyrics) was a moderate hit single from the album, as was "Believe in Humanity." The flip side of the latter single, "You Light Up My Life" (not the Debby Boone hit), charted separately from its A-side.
"

Release of the album: 1973 [LP Ode Records, Cat.# ODE 77018, USA]
Release of this CD: 2007, October, 31 [CD Epic (Japan), Cat.# EICP-845 / EAN: 4547366032512]
Manufactured By - Sony Music Japan International Inc.

Carole King - Fantasy (1973) [2007, Japanese Paper Sleeve]


Producer - Lou Adler
Bass, Double Bass [String] - Charles Larkey
Cello - Denis Brott, Dennis Karmazyn, Jeffrey Solow, Judith Perett
Congas, Bongos - Ms Bobbye Hall
Double Bass [String] - Susan Ranney
Drums, Vibraphone - Harvey Mason
Engineer - Hank Cicalo
Engineer [Assistant] - Steve Mitchell
Guitar - David T. Walker
Keyboards, Vocals, Backing Vocals, Arranged By [Strings], Arranged By [Horns], Written-by - Carole King
Saxophone - Curtis Amy, Ernie Watts, Mike Altschul, Tom Scott
Trombone - Charlie Loper, Dick "Slyde" Hyde
Trombone, Euphonium, Arranged By [Horns] - George Bohannon
Trumpet, Flugelhorn - Albert Aarons, Chuck Findley, Ollie Mitchell
Viola - Alan De Veritch, David Campbell, Denyse Buffam, Paul Polivnick
Violin - Barry Socher, Glenn Dicterow, Gordon Marron, Haim Shtrum, Kathleen Lenski, Kenneth Yerke, Miwako Watanabe, Polly Sweeney, Robert Lipsett, Ronald Folsom, Sheldon Sanov, Thomas Buffam


Carole King - Fantasy (1973) [2007, Japanese Paper Sleeve]


Tracklist:

01. Fantasy Beginning (01:03)
(Carole King)
02. You've Been Around Too Long (03:42)
(Carole King)
03. Being At War With Each Other (03:27)
(Carole King)
04. Directions (03:59)
(Carole King)
05. That's How Things Go Down (03:01)
(Carole King)
06. Weekdays (02:46)
(Carole King)
07. Haywood (04:48)
(Carole King)
08. A Quiet Place To Live (01:56)
(Carole King)
09. Welfare Symphony (03:47)
(Carole King)
10. You Light Up My Life (03:14)
(Carole King)
11. Corazón (04:06)
(Carole King)
12. Believe In Humanity (03:19)
(Carole King)
13. Fantasy End (01:32)
(Carole King)
Bonus Track:
14. Believe In Humanity (Live In Central Park, NYC) (04:35)
(Carole King)

Exact Audio Copy V1.0 beta 3 from 29. August 2011

EAC extraction logfile from 18. April 2015, 0:43

Carole King / Fantasy

Used drive : HL-DT-STDVDRAM GH24NS90 Adapter: 1 ID: 0

Read mode : Secure
Utilize accurate stream : Yes
Defeat audio cache : No
Make use of C2 pointers : Yes

Read offset correction

: 6
Overread into Lead-In and Lead-Out : No
Fill up missing offset samples with silence : Yes
Delete leading and trailing silent blocks : No
Null samples used in CRC calculations : Yes
Used interface
: Native Win32 interface for Win NT & 2000
Gap handling
: Appended to previous track

Used output format : User Defined Encoder
Selected bitrate : 1024 kBit/s
Quality : High
Add ID3 tag : No
Command line compressor : C:\Program Files (x86)\FLAC\metaflac.exe
Additional command line options : -8

TOC of the extracted CD Track | Start | Length | Start sector | End sector
1 | 0:00.00 | 1:03.04 | 0 | 4728 2 | 1:03.04 | 3:42.22 | 4729 | 21400 3 | 4:45.26 | 3:26.58 | 21401 | 36908 4 | 8:12.09 | 3:59.04 | 36909 | 54837 5 | 12:11.13 | 3:01.30 | 54838 | 68442 6 | 15:12.43 | 2:45.73 | 68443 | 80890 7 | 17:58.41 | 4:46.35 | 80891 | 102375 8 | 22:45.01 | 1:56.21 | 102376 | 111096 9 | 24:41.22 | 3:47.10 | 111097 | 128131
10 | 28:28.32 | 3:13.65 | 128132 | 142671
11 | 31:42.22 | 4:05.61 | 142672 | 161107
12 | 35:48.08 | 3:19.34 | 161108 | 176066
13 | 39:07.42 | 1:32.26 | 176067 | 182992
14 | 40:39.68 | 4:34.45 | 182993 | 203587

Track 1 Filename C:\Exact Audio Copy\Carole King\Fantasy\01 Fantasy Beginning.wav Pre-gap length 0:00:02.00 Peak level 81.0 %
Extraction speed 2.8 X
Track quality 100.0 %
Test CRC 34AEF202
Copy CRC 34AEF202
Accurately ripped (confidence 1) [AE8DF42B] (AR v1)
Copy OK

Track 2 Filename C:\Exact Audio Copy\Carole King\Fantasy\02 You've Been Around Too Long.wav Peak level 97.8 %
Extraction speed 3.7 X
Track quality 100.0 %
Test CRC 9AB32693
Copy CRC 9AB32693
Accurately ripped (confidence 1) [53BD018C] (AR v1)
Copy OK

Track 3 Filename C:\Exact Audio Copy\Carole King\Fantasy\03 Being At War With Each Other.wav Peak level 83.4 %
Extraction speed 4.0 X
Track quality 100.0 %
Test CRC 743BF6A8
Copy CRC 743BF6A8
Accurately ripped (confidence 1) [8F6009A9] (AR v1)
Copy OK

Track 4 Filename C:\Exact Audio Copy\Carole King\Fantasy\04 Directions.wav Peak level 100.0 %
Extraction speed 4.6 X
Track quality 100.0 %
Test CRC A7A067DE
Copy CRC A7A067DE
Accurately ripped (confidence 1) [771C8233] (AR v1)
Copy OK

Track 5 Filename C:\Exact Audio Copy\Carole King\Fantasy\05 That's How Things Go Down.wav Peak level 100.0 %
Extraction speed 4.9 X
Track quality 100.0 %
Test CRC A9995A6F
Copy CRC A9995A6F
Accurately ripped (confidence 1) [0CF743F4] (AR v1)
Copy OK

Track 6 Filename C:\Exact Audio Copy\Carole King\Fantasy\06 Weekdays.wav Peak level 97.4 %
Extraction speed 4.8 X
Track quality 100.0 %
Test CRC 6AB475E5
Copy CRC 6AB475E5
Accurately ripped (confidence 1) [8C09AC7E] (AR v1)
Copy OK

Track 7 Filename C:\Exact Audio Copy\Carole King\Fantasy\07 Haywood.wav Peak level 100.0 %
Extraction speed 5.3 X
Track quality 99.9 %
Test CRC 3BE2F55C
Copy CRC 3BE2F55C
Accurately ripped (confidence 1) [D63CF703] (AR v1)
Copy OK

Track 8 Filename C:\Exact Audio Copy\Carole King\Fantasy\08 A Quiet Place To Live.wav Peak level 86.4 %
Extraction speed 5.2 X
Track quality 99.8 %
Test CRC E5E789C0
Copy CRC E5E789C0
Accurately ripped (confidence 1) [EF5B50D1] (AR v1)
Copy OK

Track 9 Filename C:\Exact Audio Copy\Carole King\Fantasy\09 Welfare Symphony.wav Peak level 100.0 %
Extraction speed 5.7 X
Track quality 100.0 %
Test CRC 9AD40B86
Copy CRC 9AD40B86
Accurately ripped (confidence 1) [7E567939] (AR v1)
Copy OK

Track 10 Filename C:\Exact Audio Copy\Carole King\Fantasy\10 You Light Up My Life.wav Peak level 96.8 %
Extraction speed 6.2 X
Track quality 100.0 %
Test CRC 5AD4D6F2
Copy CRC 5AD4D6F2
Accurately ripped (confidence 1) [E951511B] (AR v1)
Copy OK

Track 11 Filename C:\Exact Audio Copy\Carole King\Fantasy\11 Corazon.wav Peak level 100.0 %
Extraction speed 6.4 X
Track quality 100.0 %
Test CRC B5AB4ADB
Copy CRC B5AB4ADB
Accurately ripped (confidence 1) [A387A4FA] (AR v1)
Copy OK

Track 12 Filename C:\Exact Audio Copy\Carole King\Fantasy\12 Believe In Humanity.wav Peak level 99.2 %
Extraction speed 6.3 X
Track quality 99.8 %
Test CRC B47E3E59
Copy CRC B47E3E59
Accurately ripped (confidence 1) [55E06A5D] (AR v1)
Copy OK

Track 13 Filename C:\Exact Audio Copy\Carole King\Fantasy\13 Fantasy End.wav Peak level 81.7 %
Extraction speed 6.1 X
Track quality 100.0 %
Test CRC 327F5C6E
Copy CRC 327F5C6E
Accurately ripped (confidence 1) [EA2A0F92] (AR v1)
Copy OK

Track 14 Filename C:\Exact Audio Copy\Carole King\Fantasy\14 Believe In Humanity (Live Central Park NYC).wav Pre-gap length 0:00:04.56 Peak level 88.6 %
Extraction speed 6.7 X
Track quality 100.0 %
Test CRC F4A2CDD0
Copy CRC F4A2CDD0
Accurately ripped (confidence 1) [5E10F7FA] (AR v1)
Copy OK

All tracks accurately ripped

No errors occurred

End of status report

==== Log checksum 230EF7217438296C615007A34506A644041AC2D9AB5A7ADB4331172A91EDEA02 ====

foobar2000 1.3.7 / Dynamic Range Meter 1.1.1
log date: 2015-06-16 23:25:07

------
Analyzed: Carole King / Fantasy
------

DR Peak RMS Duration Track
------
DR12 -1.82 dB -17.65 dB 1:03 ?-01 Fantasy Beginning
DR11 -0.19 dB -15.16 dB 3:42 ?-02 You've Been Around Too Long
DR12 -1.57 dB -17.00 dB 3:27 ?-03 Being At War With Each Other
DR12 0.00 dB -14.07 dB 3:59 ?-04 Directions
DR11 0.00 dB -14.57 dB 3:01 ?-05 That's How Things Go Down
DR13 -0.23 dB -15.90 dB 2:46 ?-06 Weekdays
DR12 0.00 dB -14.37 dB 4:46 ?-07 Haywood
DR11 -1.26 dB -15.06 dB 1:56 ?-08 A Quiet Place To Live
DR12 0.00 dB -16.51 dB 3:47 ?-09 Welfare Symphony
DR12 -0.28 dB -16.37 dB 3:14 ?-10 You Light Up My Life
DR12 0.00 dB -15.70 dB 4:06 ?-11 Corazon
DR11 -0.06 dB -14.38 dB 3:19 ?-12 Believe In Humanity
DR11 -1.75 dB -17.45 dB 1:32 ?-13 Fantasy End
DR12 -1.05 dB -15.92 dB 4:35 ?-14 Believe In Humanity (Live Central Park NYC)
------

Number of tracks: 14
Official DR value: DR12

Samplerate: 44100 Hz
Channels: 2
Bits per sample: 16
Bitrate: 798 kbps
Codec: FLAC
DOWNLOAD LINKS:
Buy Premium To Support Me & Get Resumable Support & Max Speed


Links are Interchangeable - No Password - Single Extraction
Direct Download

Tags: Carole, Fantasy, Japanese, Sleeve

Carole King - Fantasy (1973) [2007, Japanese Paper Sleeve] Download via Hotfile Rapidshare Fileserve Megaupload & FileSonic, Carole King - Fantasy (1973) [2007, Japanese Paper Sleeve] free torrent downloads included crack, serial, keygen.Carole King - Fantasy (1973) [2007, Japanese Paper Sleeve] Fast Download via Rapidshare Hotfile Fileserve Filesonic Megaupload, Carole King - Fantasy (1973) [2007, Japanese Paper Sleeve] Torrents and Emule Download or anything related.
Leave a Comment
Your Name:
E-Mail:
Add Comments:

Enter Code: