Climie Fisher - Coming In For The Kill (1989) Remastered Expanded Reissue 2009

Download Now

Climie Fisher - Coming In For The Kill (1989) Remastered Expanded Reissue 2009

Climie Fisher - Coming In For The Kill (1989) Remastered Expanded Reissue 2009
EAC | FLAC | Image (Cue&Log) ~ 538 Mb (incl 5%) | Mp3 (CBR320) ~ 177 Mb (incl 5%) | Scans ~ 106 Mb
Genre: Sophisti-Pop, New Wave, Pop Rock | Label: Edsel Records | # EDSS 1039 | Time: 01:13:48

"Digitally remastered and expanded edition of the 1989 sophomore album from the British Pop duo including seven bonus tracks. Climie Fisher were formed in 1987 by vocalist/songwriter Simon Climie and former Naked Eyes keyboardist Rob Fisher. Simon Climie was already known as the writer of the Aretha Franklin and George Michael hit 'I Knew You Were Waiting (For Me)' and other late '80s hits before forming this successful recording project. Features the singles 'Facts Of Love', 'Fire On The Ocean' and 'It's Not Supposed To Be That Way'."

"The duo Climie Fisher was part of a forgotten British Invasion in the late '80s. Bands from the U.K. like Johnny Hates Jazz, Waterfront, and Curiousity Killed the Cat tried to lure American audiences with a polished amalgam of blue-eyed soul and light funk. Featuring vocalist Simon Climie and keyboardist Rob Fisher, Climie Fisher released their debut album, Everything, in 1988. Fisher was previously one-half of another duo, Naked Eyes. Climie and Fisher met while recording session work at Abbey Road Studios in England. Lamenting the lack of good pop music, they decided to collaborate, hiring Steve Lillywhite and Stephen Hague as producers on Everything. In addition, veteran songwriter Dennis Morgan was asked to co-write several of the tracks, including "Love Changes (Everything)" and "Rise to the Occasion," two of the group's biggest hits. "Love Changes (Everything)" landed at number two on the U.K. charts, and it's the group's most well-known song in America. After a second LP, 1989's Coming in for the Kill, Climie Fisher split up. On August 25, 1999, Fisher passed away at the age of 39. Climie co-wrote and produced much of Eric Clapton's album Pilgrim; he also co-produced Riding With the King, featuring Clapton and B.B. King, and Clapton's Reptile.

Michael Sutton, Allmusic.com
"




Tracklist:

01. Facts Of Love (03:43)
02. Fire On The Ocean (04:17)
03. It's Not Supposed To Be That Way (03:48)
04. Hold On Through The Night (03:53)
05. Buried Treasure (04:33)
06. Power Of The Dreamworld (05:14)
07. The Best Part Of Living Is Loving You (03:51)
08. Coming In For The Kill (04:13)
09. Don't Mess Around (03:35)
10. You Keep Me Coming Back For More (04:10)
11. Cold Light Of Day (03:42)
12. Gypsy (03:49)
13. Memories (If I Could Relive Your Love) (05:57)
14. Godsend (04:06)
15. You're Not Alone In This World (03:57)
16. Rhythm Of The World (04:22)
17. The Way It Should Be (06:30)


Exact Audio Copy V0.99 prebeta 3 from 28. July 2007

EAC extraction logfile from 26. May 2010, 8:40

Climie Fisher / Coming In For The Kill...Plus

Used drive : Optiarc DVD RW AD-7173S Adapter: 3 ID: 0

Read mode : Secure
Utilize accurate stream : Yes
Defeat audio cache : Yes
Make use of C2 pointers : No

Read offset correction

: 48
Overread into Lead-In and Lead-Out : No
Fill up missing offset samples with silence : Yes
Delete leading and trailing silent blocks : No
Null samples used in CRC calculations : Yes
Used interface
: Native Win32 interface for Win NT & 2000

Used output format : Internal WAV Routines
Sample format : 44.100 Hz; 16 Bit; Stereo

TOC of the extracted CD Track | Start | Length | Start sector | End sector
1 | 0:00.00 | 3:43.61 | 0 | 16785 2 | 3:43.61 | 4:17.47 | 16786 | 36107 3 | 8:01.33 | 3:48.68 | 36108 | 53275 4 | 11:50.26 | 3:53.61 | 53276 | 70811 5 | 15:44.12 | 4:33.04 | 70812 | 91290 6 | 20:17.16 | 5:14.24 | 91291 | 114864 7 | 25:31.40 | 3:51.23 | 114865 | 132212 8 | 29:22.63 | 4:13.40 | 132213 | 151227 9 | 33:36.28 | 3:35.10 | 151228 | 167362
10 | 37:11.38 | 4:10.64 | 167363 | 186176
11 | 41:22.27 | 3:42.06 | 186177 | 202832
12 | 45:04.33 | 3:49.49 | 202833 | 220056
13 | 48:54.07 | 5:57.15 | 220057 | 246846
14 | 54:51.22 | 4:06.38 | 246847 | 265334
15 | 58:57.60 | 3:57.30 | 265335 | 283139
16 | 62:55.15 | 4:22.60 | 283140 | 302849
17 | 67:18.00 | 6:30.19 | 302850 | 332118

Range status and errors

Selected range Filename W:\CD\Climie Fisher - Coming In For The Kill...Plus.wav Peak level 99.4 %
Range quality 100.0 %
Test CRC 23DDE765
Copy CRC 23DDE765
Copy OK

No errors occurred


AccurateRip summary

Track 1 accurately ripped (confidence 1) [614848D1]
Track 2 accurately ripped (confidence 1) 914E867
Track 3 accurately ripped (confidence 1) [296CC201]
Track 4 accurately ripped (confidence 1) [1CBD1A5E]
Track 5 accurately ripped (confidence 1) [2B6E5F2A]
Track 6 accurately ripped (confidence 1) [FA5DFBAF]
Track 7 accurately ripped (confidence 1) [77029E5A]
Track 8 accurately ripped (confidence 1) AFB385B
Track 9 accurately ripped (confidence 1) 96E0802
Track 10 accurately ripped (confidence 1) [300BAAFD]
Track 11 accurately ripped (confidence 1) [326BEE2D]
Track 12 accurately ripped (confidence 1) [D09F4A90]
Track 13 accurately ripped (confidence 1) [9B32A2AC]
Track 14 accurately ripped (confidence 1) [C15FD5F0]
Track 15 accurately ripped (confidence 1) [2F15A671]
Track 16 accurately ripped (confidence 1) [8EBDD5A9]
Track 17 accurately ripped (confidence 1) [FC049702]

All tracks accurately ripped

End of status report

foobar2000 1.2 / Dynamic Range Meter 1.1.1
log date: 2015-06-17 00:26:17

------
Analyzed: Climie Fisher / Coming In For The Kill...Plus
------

DR Peak RMS Duration Track
------
DR11 -0.05 dB -12.68 dB 3:44 01-Facts Of Love
DR11 -0.05 dB -12.46 dB 4:18 02-Fire On The Ocean
DR14 -0.05 dB -15.37 dB 3:49 03-It's Not Supposed To Be That Way
DR12 -0.05 dB -13.67 dB 3:54 04-Hold On Through The Night
DR13 -0.05 dB -15.30 dB 4:33 05-Buried Treasure
DR13 -0.05 dB -14.24 dB 5:14 06-Power Of The Dreamworld
DR12 -0.05 dB -14.31 dB 3:51 07-The Best Part Of Living Is Loving You
DR13 -0.05 dB -14.34 dB 4:14 08-Coming In For The Kill
DR12 -0.05 dB -13.98 dB 3:35 09-Don't Mess Around
DR14 -0.05 dB -15.46 dB 4:11 10-You Keep Me Coming Back For More
DR14 -0.05 dB -15.89 dB 3:42 11-Cold Light Of Day
DR13 -0.05 dB -14.03 dB 3:50 12-Gypsy
DR14 -0.05 dB -15.93 dB 5:57 13-Memories (If I Could Relive Your Love)
DR14 -0.05 dB -15.78 dB 4:07 14-Godsend
DR13 -0.05 dB -15.46 dB 3:57 15-You're Not Alone In This World
DR14 -1.08 dB -17.78 dB 4:23 16-Rhythm Of The World
DR14 -0.05 dB -15.87 dB 6:30 17-The Way It Should Be
------

Number of tracks: 17
Official DR value: DR13

Samplerate: 44100 Hz
Channels: 2
Bits per sample: 16
Bitrate: 971 kbps
Codec: FLAC

Climie Fisher - Coming In For The Kill (1989) Remastered Expanded Reissue 2009

Climie Fisher - Coming In For The Kill (1989) Remastered Expanded Reissue 2009

All thanks to original releaser - YV_Wanderer




DOWNLOAD:
Buy Premium To Support Me & Get Resumable Support & Max Speed


Links are Interchangeable - No Password
Direct Download

Tags: Climie, Fisher, Coming, Remastered, Expanded, Reissue

Climie Fisher - Coming In For The Kill (1989) Remastered Expanded Reissue 2009 Download via Hotfile Rapidshare Fileserve Megaupload & FileSonic, Climie Fisher - Coming In For The Kill (1989) Remastered Expanded Reissue 2009 free torrent downloads included crack, serial, keygen.Climie Fisher - Coming In For The Kill (1989) Remastered Expanded Reissue 2009 Fast Download via Rapidshare Hotfile Fileserve Filesonic Megaupload, Climie Fisher - Coming In For The Kill (1989) Remastered Expanded Reissue 2009 Torrents and Emule Download or anything related.
Leave a Comment
Your Name:
E-Mail:
Add Comments:

Enter Code: