Gov't Mule - Mighty High (2007)

Download Now

Gov't Mule - Mighty High (2007)

Gov't Mule - Mighty High (2007)
EAC Rip | FLAC (Img) + Cue + Log ~ 462 Mb | MP3 CBR320 ~ 174 Mb
Scans Included (JPG, 300 dpi) | RAR 5% Recovery
Dub, Reggae, Blues Rock | ATO Records #ATO0039/88088-21585-2

"2007 album from the Rock 'N' Roll outfit, which sees them embrace their Reggae influences with legendary guest musicians Toots Hibbert, Michael Franti and Willi Williams. Mighty High features Reggae and Dub versions of classic Mule covers including Al Green's, 'I'm A Ram', The Rolling Stones' 'Play With Fire' and Otis Redding's 'Hard To Handle'. The album packs in plenty of the band's legendary Rock 'N Roll with most tracks recorded in the studio and others remixed dub-style from Gov't Mule's 2006 New Year's Eve concert at the Beacon Theatre, NYC. It appears as though Gov't Mule aren't afraid to touch upon a multitude of styles -- as long as they are of the vintage variety (or more specifically, styles that thrived in the 1970s). They've hinted at their admiration for dub-reggae for a while (specifically in their concerts), but it wasn't until their 2007 release Mighty High that they fully embraced the aforementioned genre..."

Official Website | Wiki | Discogs | All Music
***************

Gov't Mule - Mighty High (2007)

Track List:

01. I'm A Ram (Original Mix) [07:42]
02. Rebel With A Cause [04:29]
03. Horseflies [04:15]
04. The Shape I'm In [07:49]
05. Play With Fire [07:33]
06. Hard To Handle [04:11]
07. Hard To Dubya [03:47]
08. Unblow Your Horn [04:42]
09. Unthrow That Spear [02:33]
10. So Ram, So Rong [05:12]
11. Outta Shape [04:39]
12. Reblow Your Mind [04:44]
13. Plasticene Era [05:22]

Warren Haynes - guitar, vocals
Matt Abts - drums, percussion
Danny Louis - keyboards, guitar, background vocals
Andy Hess - bass

Exact Audio Copy V0.99 prebeta 1 from 25. May 2007

Отчёт EAC об извлечении, выполненном 26. ноября 2008, 16:22

Gov't Mule / Mighty High

Дисковод: ASUS DRW-1814BL Adapter: 1 ID: 0

Режим чтения : Достоверность
Использование точного потока : Да
Отключение кэша аудио : Да
Использование указателей C2 : Нет

Коррекция смещения при чтении : 6
Способность читать области Lead-in и Lead-out : Нет
Заполнение пропущенных сэмплов тишиной : Да
Удаление блоков с тишиной в начале и конце : Нет
Интерфейс
: Установленный внешний ASPI-интерфейс

Выходной формат : Пользовательский кодировщик
Выбранный битрейт : 1024 kBit/s
Качество : Высокий
Добавление ID3-тэга : Нет
Утилита сжатия : E:\Program Files\Exact Audio Copy\Flac\flac.exe
Дополнительные параметры : -6 %s

TOC извлечённого CD Трек | Старт | Длительность | Начальный сектор | Конечный сектор

1 | 0:00.00 | 7:41.73 | 0 | 34647
2 | 7:41.73 | 4:28.47 | 34648 | 54794
3 | 12:10.45 | 4:14.38 | 54795 | 73882
4 | 16:25.08 | 7:48.16 | 73883 | 108998
5 | 24:13.24 | 7:32.53 | 108999 | 142951
6 | 31:46.02 | 4:10.74 | 142952 | 161775
7 | 35:57.01 | 3:46.63 | 161776 | 178788
8 | 39:43.64 | 4:41.63 | 178789 | 199926
9 | 44:25.52 | 2:32.71 | 199927 | 211397
10 | 46:58.48 | 5:11.28 | 211398 | 234750
11 | 52:10.01 | 4:38.55 | 234751 | 255655
12 | 56:48.56 | 4:43.47 | 255656 | 276927
13 | 61:32.28 | 5:21.04 | 276928 | 301006

Характеристики диапазона извлечения и сообщения об ошибках

Выбранный диапазон Имя файла C:\Релиз\Gov't Mule - Mighty High (2007)\Gov't Mule - Mighty High.wav Пиковый уровень 100.0 %
Качество диапазона 100.0 %
CRC копии 71C0FFC7
Копирование... OK

Ошибок не произошло

Конец отчёта

foobar2000 1.2.6 / Dynamic Range Meter 1.1.1
log date: 2015-06-17 14:42:17

------
Analyzed: Gov't Mule / Mighty High
------

DR Peak RMS Duration Track
------
DR6 -0.12 dB -8.09 dB 7:42 01-I'm A Ram (Original Mix)
DR8 -0.01 dB -9.13 dB 4:29 02-Rebel With A Cause
DR9 -0.01 dB -10.72 dB 4:15 03-Horseflies
DR7 -0.01 dB -7.91 dB 7:48 04-The Shape I'm In
DR7 -0.01 dB -9.09 dB 7:33 05-Play With Fire
DR6 -0.01 dB -7.61 dB 4:11 06-Hard To Handle
DR8 0.00 dB -9.46 dB 3:47 07-Hard To Dubya
DR8 -0.04 dB -9.26 dB 4:42 08-Unblow Your Horn
DR8 -0.09 dB -9.22 dB 2:33 09-Unthrow That Spear
DR8 -0.01 dB -9.72 dB 5:11 10-So Ram, So Rong
DR7 -0.01 dB -8.24 dB 4:39 11-Outta Shape
DR8 -0.01 dB -9.43 dB 4:44 12-Reblow Your Mind
DR6 -0.19 dB -8.49 dB 5:21 13-Plasticene Era
------

Number of tracks: 13
Official DR value: DR7

Samplerate: 44100 Hz
Channels: 2
Bits per sample: 16
Bitrate: 892 kbps
Codec: FLAC

[CUETools log; Date: 17.06.2015 14:45:00; Version: 2.1.5]
[CTDB TOCID: QJGM2l9tRYiRSod7fH73AAk.APY-] found.
Track | CTDB Status
1 | (31/31) Accurately ripped
2 | (31/31) Accurately ripped
3 | (31/31) Accurately ripped
4 | (31/31) Accurately ripped
5 | (30/31) Accurately ripped
6 | (31/31) Accurately ripped
7 | (31/31) Accurately ripped
8 | (31/31) Accurately ripped
9 | (31/31) Accurately ripped
10 | (31/31) Accurately ripped
11 | (31/31) Accurately ripped
12 | (31/31) Accurately ripped
13 | (31/31) Accurately ripped
[AccurateRip ID: 00221c75-014dbe9b-bf0fad0d] found.
Track [ CRC | V2 ] Status
01 [e4dc3b30|c5aa2f40] (02+02/85) Accurately ripped
02 [74e50587|b8239b5e] (02+02/83) Accurately ripped
03 [35a21147|b13c3756] (02+02/83) Accurately ripped
04 [04821a56|6b400120] (02+02/83) Accurately ripped
05 [31767d5b|aab473d6] (03+02/82) Accurately ripped
06 676d8a2|0206e832 (02+02/81) Accurately ripped
07 [7e984ded|8eb97df7] (02+02/81) Accurately ripped
08 [67b9c728|a19e1a9d] (02+02/82) Accurately ripped
09 [48b26472|e234c2ec] (02+02/82) Accurately ripped
10 [4c8bebb7|f162f1a7] (02+02/81) Accurately ripped
11 [95246368|c06ab61a] (02+02/84) Accurately ripped
12 [e2a0afa7|7a39432b] (02+02/83) Accurately ripped
13 [e2d36da0|8e3d39e0] (02+02/81) Accurately ripped
Offsetted by -30:
01 [e866616b] (15/85) Accurately ripped
02 [2a8faf21] (15/83) Accurately ripped
03 [18630e0d] (15/83) Accurately ripped
04 [6be6fd38] (15/83) Accurately ripped
05 [4cd44e25] (15/82) Accurately ripped
06 [1742f477] (15/81) Accurately ripped
07 [d09a3e70] (15/81) Accurately ripped
08 [963bd716] (15/82) Accurately ripped
09 [92bab139] (15/82) Accurately ripped
10 9a0f3c7 (14/81) Accurately ripped
11 2d25da3 (15/84) Accurately ripped
12 [4e90a9d6] (15/83) Accurately ripped
13 [117758ce] (15/81) Accurately ripped
Offsetted by -6:
01 4c24577 (29/85) Accurately ripped
02 [ee58d961] (28/83) Accurately ripped
03 [59cff554] (28/83) Accurately ripped
04 [c9263c8c] (28/83) Accurately ripped
05 [0de44049] (26/82) Accurately ripped
06 [3ef06915] (26/81) Accurately ripped
07 [5396e79f] (26/81) Accurately ripped
08 [cf8da499] (27/82) Accurately ripped
09 [83b0b637] (27/82) Accurately ripped
10 [1978a79d] (27/81) Accurately ripped
11 [440d1c76] (28/84) Accurately ripped
12 [5b24332d] (28/83) Accurately ripped
13 [cf904675] (26/81) Accurately ripped
Offsetted by -36:
01 [4aa1bedf] (00/85) No match (V2 was not tested)
02 [1305b4b3] (00/83) No match (V2 was not tested)
03 [86b5efca] (00/83) No match (V2 was not tested)
04 [4e33a2d9] (00/83) No match (V2 was not tested)
05 [c7e2a501] (00/82) No match (V2 was not tested)
06 [57c85b60] (00/81) No match (V2 was not tested)
07 923ad93 (00/81) No match (V2 was not tested)
08 910f9da (00/82) No match (V2 was not tested)
09 [123afc1a] (00/82) No match (V2 was not tested)
10 [897e5503] (00/81) No match (V2 was not tested)
11 [6e957f81] (00/84) No match (V2 was not tested)
12 [e9b1e685] (00/83) No match (V2 was not tested)
13 [cb7f178c] (00/81) No match (V2 was not tested)

Track Peak [ CRC32 ] [W/O NULL] [ LOG ]
-- 100,0 [71C0FFC7] [8692EDC3] CRC32
01 98,6 [1842975B] C7B00D0
02 99,8 [7DFA1FF4] 1BC56E0
03 99,8 [0D1B8FE2] [F36E9EC5]
04 99,8 [10C63890] [F93AAF21]
05 99,8 [2B87E527] [A9FA891E]
06 99,8 [85137E59] [E4D48E20]
07 100,0 [A3F390CB] [1AAB313B]
08 99,4 [85A9E3DD] [107F99B1]
09 99,0 [71D1819C] [A2AB6F41]
10 99,8 [C63F4E1D] 3F382F1
11 99,8 [10CF78D6] [956BED4E]
12 99,8 [072E9645] [5EDC6D53]
13 97,8 [754E4D29] [96E6C324]

Gov't Mule - Mighty High (2007)


DOWNLOAD LINKS:


No Password
Direct Download

Tags: Mighty

Gov't Mule - Mighty High (2007) Download via Hotfile Rapidshare Fileserve Megaupload & FileSonic, Gov't Mule - Mighty High (2007) free torrent downloads included crack, serial, keygen.Gov't Mule - Mighty High (2007) Fast Download via Rapidshare Hotfile Fileserve Filesonic Megaupload, Gov't Mule - Mighty High (2007) Torrents and Emule Download or anything related.
Leave a Comment
Your Name:
E-Mail:
Add Comments:

Enter Code: