Billie & Dede Pierce - New Orleans | The Living Legends: Blues And Tonks From The Delta (1961)

Download Now

Billie & Dede Pierce - New Orleans | The Living Legends: Blues And Tonks From The Delta (1961)

Billie & Dede Pierce - New Orleans | The Living Legends: Blues And Tonks From The Delta (1961)
EAC Rip | FLAC with CUE and log | scans | 278mb
MP3 CBR 320kbps | RAR | 123mb
Genre: blues

New Orleans | The Living Legends: Blues And Tonks From The Delta is a 1961 album on Riverside by Billie & Dede Pierce. This 1994 CD pressing features three bonus tracks.
Billie & Dede Pierce - New Orleans | The Living Legends: Blues And Tonks From The Delta (1961)

01. St. James Infirmary
02. Exactly Like You
03. Pinchback Blues
04. Milenberg Joys
05. In The Racket
06. Dippermouth Blues
07. Goin' Back To Florida
08. You Tell Me Your Dream
09. Racktrack Blues
10. Shoe Boogie
11. Baby Won't You Please Come Home
12. Billie's Gumbo Blues *
13. Good Tonk Blues *
14. Freight Train Moanin' Blues *
* bonus tracks

Billie & Dede Pierce - New Orleans | The Living Legends: Blues And Tonks From The Delta (1961)



EAC extraction logfile from 6. March 2007, 16:36 for CD
Billie & Dede Pierce / New Orleans: The Living Legends - Blues And Tonks From The Delta

Used drive : LITE-ON DVDRW SOHW-1633S Adapter: 0 ID: 0
Read mode : Secure with NO C2, accurate stream, disable cache
Read offset correction : 12
Overread into Lead-In and Lead-Out : No

Used output format : Internal WAV Routines 44.100 Hz; 16 Bit; Stereo

Other options :
Fill up missing offset samples with silence : Yes
Delete leading and trailing silent blocks : No
Installed external ASPI interface

Track 1
Filename D:\FLAC\Billie & Dede Pierce - New Orleans, The Living Legends (1961) [FLAC]\01 - St. James Infirmary.wav Pre-gap length 0:00:02.00 Peak level 78.0 %
Track quality 100.0 %
Test CRC 7B729765
Copy CRC 7B729765
Copy OK

Track 2
Filename D:\FLAC\Billie & Dede Pierce - New Orleans, The Living Legends (1961) [FLAC]\02 - Exactly Like You.wav Pre-gap length 0:00:02.97 Peak level 80.4 %
Track quality 99.9 %
Test CRC A6B8A222
Copy CRC A6B8A222
Copy OK

Track 3
Filename D:\FLAC\Billie & Dede Pierce - New Orleans, The Living Legends (1961) [FLAC]\03 - Pinchback Blues.wav Pre-gap length 0:00:02.57 Peak level 85.2 %
Track quality 100.0 %
Test CRC B74B3626
Copy CRC B74B3626
Copy OK

Track 4
Filename D:\FLAC\Billie & Dede Pierce - New Orleans, The Living Legends (1961) [FLAC]\04 - Milenberg Joys.wav Pre-gap length 0:00:02.30 Peak level 78.2 %
Track quality 100.0 %
Test CRC 4895A53D
Copy CRC 4895A53D
Copy OK

Track 5
Filename D:\FLAC\Billie & Dede Pierce - New Orleans, The Living Legends (1961) [FLAC]\05 - In The Racket.wav Pre-gap length 0:00:01.53 Peak level 85.2 %
Track quality 100.0 %
Test CRC 6CDFB470
Copy CRC 6CDFB470
Copy OK

Track 6
Filename D:\FLAC\Billie & Dede Pierce - New Orleans, The Living Legends (1961) [FLAC]\06 - Dippermouth Blues.wav Pre-gap length 0:00:02.46 Peak level 69.0 %
Track quality 100.0 %
Test CRC 20DF1ECF
Copy CRC 20DF1ECF
Copy OK

Track 7
Filename D:\FLAC\Billie & Dede Pierce - New Orleans, The Living Legends (1961) [FLAC]\07 - Goin' Back To Florida.wav Pre-gap length 0:00:02.42 Peak level 88.3 %
Track quality 99.9 %
Test CRC B6980BA6
Copy CRC B6980BA6
Copy OK

Track 8
Filename D:\FLAC\Billie & Dede Pierce - New Orleans, The Living Legends (1961) [FLAC]\08 - You Tell Me Your Dream.wav Pre-gap length 0:00:02.22 Peak level 96.0 %
Track quality 100.0 %
Test CRC A2FA320D
Copy CRC A2FA320D
Copy OK

Track 9
Filename D:\FLAC\Billie & Dede Pierce - New Orleans, The Living Legends (1961) [FLAC]\09 - Racktrack Blues.wav Pre-gap length 0:00:03.04 Peak level 92.2 %
Track quality 100.0 %
Test CRC 459623CD
Copy CRC 459623CD
Copy OK

Track 10
Filename D:\FLAC\Billie & Dede Pierce - New Orleans, The Living Legends (1961) [FLAC]\10 - Shoe Boogie.wav Pre-gap length 0:00:01.90 Peak level 100.0 %
Track quality 100.0 %
Test CRC E9478AC0
Copy CRC E9478AC0
Copy OK

Track 11
Filename D:\FLAC\Billie & Dede Pierce - New Orleans, The Living Legends (1961) [FLAC]\11 - Baby Won't You Please Come Home.wav Pre-gap length 0:00:02.76 Peak level 94.6 %
Track quality 100.0 %
Test CRC 0EE85342
Copy CRC 0EE85342
Copy OK

Track 12
Filename D:\FLAC\Billie & Dede Pierce - New Orleans, The Living Legends (1961) [FLAC]\12 - Billie's Gumbo Blues.wav Pre-gap length 0:00:01.26 Peak level 76.7 %
Track quality 100.0 %
Test CRC 1EA8A3DB
Copy CRC 1EA8A3DB
Copy OK

Track 13
Filename D:\FLAC\Billie & Dede Pierce - New Orleans, The Living Legends (1961) [FLAC]\13 - Good Tonk Blues.wav Pre-gap length 0:00:02.02 Peak level 69.6 %
Track quality 99.9 %
Test CRC C88AEC08
Copy CRC C88AEC08
Copy OK

Track 14
Filename D:\FLAC\Billie & Dede Pierce - New Orleans, The Living Legends (1961) [FLAC]\14 - Freight Train Moanin' Blues.wav Pre-gap length 0:00:02.56 Peak level 89.5 %
Track quality 100.0 %
Test CRC 34E51DF0
Copy CRC 34E51DF0
Copy OK

No errors occured

End of status report
DOWNLOAD LINKS
Buy Premium From My Links To Get Resumable Support & Max Speed & To Support Me


Links are Interchangeable - No Password - Single Extraction
Direct Download

Tags: Billie, Pierce, Orleans, Living, Legends

Billie & Dede Pierce - New Orleans | The Living Legends: Blues And Tonks From The Delta (1961) Download via Hotfile Rapidshare Fileserve Megaupload & FileSonic, Billie & Dede Pierce - New Orleans | The Living Legends: Blues And Tonks From The Delta (1961) free torrent downloads included crack, serial, keygen.Billie & Dede Pierce - New Orleans | The Living Legends: Blues And Tonks From The Delta (1961) Fast Download via Rapidshare Hotfile Fileserve Filesonic Megaupload, Billie & Dede Pierce - New Orleans | The Living Legends: Blues And Tonks From The Delta (1961) Torrents and Emule Download or anything related.
Leave a Comment
Your Name:
E-Mail:
Add Comments:

Enter Code: