Black Moth Super Rainbow - Dandelion Gum (2007)

Download Now

Black Moth Super Rainbow - Dandelion Gum (2007)

Black Moth Super Rainbow - Dandelion Gum (2007)
EAC Rip | FLAC with CUE and log | scans | 322mb
MP3 CBR 320kbps | RAR | 120mb
Genre: indie pop, alternative, synth pop, electronic pop, psychedelic pop

Dandelion Gum is the third album by Pennsylvania band Black Moth Super Rainbow. It it said they are from the deep forests of the state but actual people believe they are from the city of Pittsburgh. The group consisted of Tobacco, Iffernaut, Father Hummingbird, Power Pill Fist, and The Seven Fields of Aphelion.
Black Moth Super Rainbow - Dandelion Gum (2007)

01. Forever Heavy
02. Jump Into My Mouth And Breathe In The Stardust
03. Melt Me
04. Lollipopsichord
05. They Live In The Meadow
06. Sun Lips
07. Rollerdisco
08. Neon Syrup For The Cemetery Sisters
09. The Afternoon Turns Pink
10. When The Sun Grows On Your Tongue
11. Spinning Cotton Candy In A Shack Made Of Shingles
12. Drippy Eye
13. Lost, Picking Flowers In The Woods
14. Caterpillar House
15. Wall Of Gum
16. Untitled Roadside Demo
17. (Untitled)

Black Moth Super Rainbow - Dandelion Gum (2007)



EAC extraction logfile from 2. June 2007, 6:40 for CD
Black Moth Super Rainbow / Dandelion Gum

Used drive : LITE-ON DVDRW SOHW-1633S Adapter: 0 ID: 0
Read mode : Secure with NO C2, accurate stream, disable cache
Read offset correction : 12
Overread into Lead-In and Lead-Out : No

Used output format : Internal WAV Routines 44.100 Hz; 16 Bit; Stereo

Other options :
Fill up missing offset samples with silence : Yes
Delete leading and trailing silent blocks : No
Installed external ASPI interface

Track 1
Filename D:\FLAC\Black Moth Super Rainbow - Dandelion Gum (2007) [FLAC]\01 - Forever Heavy.wav Pre-gap length 0:01:31.48 Peak level 91.2 %
Track quality 100.0 %
Test CRC 16410806
Copy CRC 16410806
Copy OK

Track 2
Filename D:\FLAC\Black Moth Super Rainbow - Dandelion Gum (2007) [FLAC]\02 - Jump Into My Mouth And Breathe In The Stardust.wav Pre-gap length 0:00:00.49 Peak level 97.7 %
Track quality 99.9 %
Test CRC 7B4DDD45
Copy CRC 7B4DDD45
Copy OK

Track 3
Filename D:\FLAC\Black Moth Super Rainbow - Dandelion Gum (2007) [FLAC]\03 - Melt Me.wav Pre-gap length 0:00:01.30 Peak level 61.7 %
Track quality 100.0 %
Test CRC A566CCE7
Copy CRC A566CCE7
Copy OK

Track 4
Filename D:\FLAC\Black Moth Super Rainbow - Dandelion Gum (2007) [FLAC]\04 - Lollipopsichord.wav Pre-gap length 0:00:00.44 Peak level 82.6 %
Track quality 100.0 %
Test CRC 1330063B
Copy CRC 1330063B
Copy OK

Track 5
Filename D:\FLAC\Black Moth Super Rainbow - Dandelion Gum (2007) [FLAC]\05 - They Live In The Meadow.wav Peak level 97.7 %
Track quality 100.0 %
Test CRC CFAD2339
Copy CRC CFAD2339
Copy OK

Track 6
Filename D:\FLAC\Black Moth Super Rainbow - Dandelion Gum (2007) [FLAC]\06 - Sun Lips.wav Pre-gap length 0:00:01.20 Peak level 97.7 %
Track quality 100.0 %
Test CRC 58A66632
Copy CRC 58A66632
Copy OK

Track 7
Filename D:\FLAC\Black Moth Super Rainbow - Dandelion Gum (2007) [FLAC]\07 - Rollerdisco.wav Pre-gap length 0:00:00.41 Peak level 97.7 %
Track quality 100.0 %
Test CRC 53A9E399
Copy CRC 53A9E399
Copy OK

Track 8
Filename D:\FLAC\Black Moth Super Rainbow - Dandelion Gum (2007) [FLAC]\08 - Neon Syrup For The Cemetery Sisters.wav Pre-gap length 0:00:00.08 Peak level 97.7 %
Track quality 100.0 %
Test CRC 8ABDA503
Copy CRC 8ABDA503
Copy OK

Track 9
Filename D:\FLAC\Black Moth Super Rainbow - Dandelion Gum (2007) [FLAC]\09 - The Afternoon Turns Pink.wav Pre-gap length 0:00:01.00 Peak level 99.0 %
Track quality 100.0 %
Test CRC 2BD06F91
Copy CRC 2BD06F91
Copy OK

Track 10
Filename D:\FLAC\Black Moth Super Rainbow - Dandelion Gum (2007) [FLAC]\10 - When The Sun Grows On Your Tongue.wav Peak level 93.5 %
Track quality 100.0 %
Test CRC A8C9656A
Copy CRC A8C9656A
Copy OK

Track 11
Filename D:\FLAC\Black Moth Super Rainbow - Dandelion Gum (2007) [FLAC]\11 - Spinning Cotton Candy In A Shack Made Of Shingles.wav Pre-gap length 0:00:01.00 Peak level 97.7 %
Track quality 100.0 %
Test CRC A2D78135
Copy CRC A2D78135
Copy OK

Track 12
Filename D:\FLAC\Black Moth Super Rainbow - Dandelion Gum (2007) [FLAC]\12 - Drippy Eye.wav Pre-gap length 0:00:00.44 Peak level 92.4 %
Track quality 100.0 %
Test CRC 7AFEDA2B
Copy CRC 7AFEDA2B
Copy OK

Track 13
Filename D:\FLAC\Black Moth Super Rainbow - Dandelion Gum (2007) [FLAC]\13 - Lost, Picking Flowers In The Woods.wav Pre-gap length 0:00:01.24 Peak level 81.4 %
Track quality 100.0 %
Test CRC 836FC261
Copy CRC 836FC261
Copy OK

Track 14
Filename D:\FLAC\Black Moth Super Rainbow - Dandelion Gum (2007) [FLAC]\14 - Caterpillar House.wav Peak level 77.6 %
Track quality 100.0 %
Test CRC AF1CF548
Copy CRC AF1CF548
Copy OK

Track 15
Filename D:\FLAC\Black Moth Super Rainbow - Dandelion Gum (2007) [FLAC]\15 - Wall Of Gum.wav Pre-gap length 0:00:00.58 Peak level 93.5 %
Track quality 99.8 %
Test CRC 583738AE
Copy CRC 583738AE
Copy OK

Track 16
Filename D:\FLAC\Black Moth Super Rainbow - Dandelion Gum (2007) [FLAC]\16 - Untitled Roadside Demo.wav Pre-gap length 0:00:00.41 Peak level 99.0 %
Track quality 100.0 %
Test CRC 649CE761
Copy CRC 649CE761
Copy OK

Track 17
Filename D:\FLAC\Black Moth Super Rainbow - Dandelion Gum (2007) [FLAC]\17 - (Untitled).wav Pre-gap length 0:00:49.85 Peak level 91.3 %
Track quality 100.0 %
Test CRC 46DA584D
Copy CRC 46DA584D
Copy OK

No errors occured

End of status report
DOWNLOAD LINKS
Buy Premium From My Links To Get Resumable Support & Max Speed & To Support Me


Links are Interchangeable - No Password - Single Extraction
Direct Download

Tags: Rainbow, Dandelion

Black Moth Super Rainbow - Dandelion Gum (2007) Download via Hotfile Rapidshare Fileserve Megaupload & FileSonic, Black Moth Super Rainbow - Dandelion Gum (2007) free torrent downloads included crack, serial, keygen.Black Moth Super Rainbow - Dandelion Gum (2007) Fast Download via Rapidshare Hotfile Fileserve Filesonic Megaupload, Black Moth Super Rainbow - Dandelion Gum (2007) Torrents and Emule Download or anything related.
Leave a Comment
Your Name:
E-Mail:
Add Comments:

Enter Code: