Black Oak Arkansas - Live! Mutha (1976)

Download Now

Black Oak Arkansas - Live! Mutha (1976)

Black Oak Arkansas - Live! Mutha (1976)
EAC Rip | FLAC with CUE and log | scans | 258mb
MP3 CBR 320kbps | RAR | 91mb
Genre: Southern rock, classic rock

Live! Mutha is the 9th album by Black Oak Arkansas and their second live album, released on Atco in 1976. It was recorded in Long Beach, California at the Long Beach Auditorium on 11 May, 1975. This is from the CD released by American Beat in 2007.
Black Oak Arkansas - Live! Mutha (1976)

1. Jim Dandy
2. Fancy Nancy
3. Lord Have Mercy On My Soul
4. Cryin' Shame
5. Fever In My Mind
6. Hey Ya'll
7. Rebel
8. Taxman
9. Hot And Nasty

Black Oak Arkansas - Live! Mutha (1976)



EAC extraction logfile from 18. July 2007, 4:10 for CD
Black Oak Arkansas / Live! Mutha

Used drive : LITE-ON DVDRW SOHW-1633S Adapter: 0 ID: 0
Read mode : Secure with NO C2, accurate stream, disable cache
Read offset correction : 12
Overread into Lead-In and Lead-Out : No

Used output format : Internal WAV Routines 44.100 Hz; 16 Bit; Stereo

Other options :
Fill up missing offset samples with silence : Yes
Delete leading and trailing silent blocks : No
Installed external ASPI interface

Track 1
Filename D:\FLAC\Black Oak Arkansas - Live! Mutha (1976) [FLAC]\01 - Jim Dandy.wav Pre-gap length 0:00:02.00 Peak level 74.2 %
Track quality 100.0 %
Test CRC EC6BFDDA
Copy CRC EC6BFDDA
Copy OK

Track 2
Filename D:\FLAC\Black Oak Arkansas - Live! Mutha (1976) [FLAC]\02 - Fancy Nancy.wav Peak level 82.9 %
Track quality 99.9 %
Test CRC 7170F0C7
Copy CRC 7170F0C7
Copy OK

Track 3
Filename D:\FLAC\Black Oak Arkansas - Live! Mutha (1976) [FLAC]\03 - Lord Have Mercy On My Soul.wav Peak level 79.3 %
Track quality 100.0 %
Test CRC 47E3C976
Copy CRC 47E3C976
Copy OK

Track 4
Filename D:\FLAC\Black Oak Arkansas - Live! Mutha (1976) [FLAC]\04 - Cryin' Shame.wav Peak level 77.2 %
Track quality 100.0 %
Test CRC 7C09ED47
Copy CRC 7C09ED47
Copy OK

Track 5
Filename D:\FLAC\Black Oak Arkansas - Live! Mutha (1976) [FLAC]\05 - Fever In My Mind.wav Peak level 86.7 %
Track quality 100.0 %
Test CRC 2DF9E190
Copy CRC 2DF9E190
Copy OK

Track 6
Filename D:\FLAC\Black Oak Arkansas - Live! Mutha (1976) [FLAC]\06 - Hey Ya'll.wav Peak level 77.1 %
Track quality 100.0 %
Test CRC 75A54896
Copy CRC 75A54896
Copy OK

Track 7
Filename D:\FLAC\Black Oak Arkansas - Live! Mutha (1976) [FLAC]\07 - Rebel.wav Peak level 77.9 %
Track quality 100.0 %
Test CRC 465377D1
Copy CRC 465377D1
Copy OK

Track 8
Filename D:\FLAC\Black Oak Arkansas - Live! Mutha (1976) [FLAC]\08 - Taxman.wav Peak level 72.2 %
Track quality 100.0 %
Test CRC 067AC985
Copy CRC 067AC985
Copy OK

Track 9
Filename D:\FLAC\Black Oak Arkansas - Live! Mutha (1976) [FLAC]\09 - Hot And Nasty.wav Peak level 73.3 %
Track quality 100.0 %
Test CRC AD28B9EF
Copy CRC AD28B9EF
Copy OK

No errors occured

End of status report
DOWNLOAD LINKS
Buy Premium From My Links To Get Resumable Support & Max Speed & To Support Me


Links are Interchangeable - No Password - Single Extraction
Direct Download

Tags: Arkansas

Black Oak Arkansas - Live! Mutha (1976) Download via Hotfile Rapidshare Fileserve Megaupload & FileSonic, Black Oak Arkansas - Live! Mutha (1976) free torrent downloads included crack, serial, keygen.Black Oak Arkansas - Live! Mutha (1976) Fast Download via Rapidshare Hotfile Fileserve Filesonic Megaupload, Black Oak Arkansas - Live! Mutha (1976) Torrents and Emule Download or anything related.
Leave a Comment
Your Name:
E-Mail:
Add Comments:

Enter Code: