Manfred Mann's Earth Band - The Very Best Of: Vol. 1 & 2 (1993) [Limited Edition]

Download Now

Manfred Mann's Earth Band - The Very Best Of: Vol. 1 & 2 (1993) [Limited Edition]

Manfred Mann's Earth Band - The Very Best Of: Vol. 1 & 2 (1993)
2CD | EAC Rip | FLAC (Img) + Cue + Log ~ 994 Mb | MP3 CBR320 ~ 382 Mb
Scans Included (JPG, 400 dpi) | RAR 5% Recovery
Prog/Jazz/Hard/Pop/Blues Rock | Arcade Deutschland GmbH #88 00 184

"The Best Of Manfred Mann's Earth Band is a compilation album released in 1993 by Manfred Mann's Earth Band. After a very successful period in the 60's with the pop group named after him and a much less successful intermezzo in Jazz with Chapter Three, the South-African born keyboardist Manfred Mann turned towards Rock music. In 1971 he formed Manfred Mann's Earth Band (MMEB). Mann's use of the Moog synthesizer was key to the sound of this band. MMEB had a very successful area during the mid 70's and early 80's but was disbanded by Mann in 1987 after being fed up with trying to produce hit records. He started a project which was based mostly on the music of Native American Indians named Manfred Mann's Plain Music and which released one album. After this Mann reformed the MMEB in 1991 and was starting again to release records with them occasionally but also to be a regular live band with extensive tours mostly in Europe until today."

Official Website | Wiki | Discogs | All Music
***************

Manfred Mann's Earth Band - The Very Best Of: Vol. 1 & 2 (1993) [Limited Edition]

Track List CD1:

01. Blinded By The Light (Ext.Version) [07:06]
02. Questions [03:58]
03. Davy's On The Road Again [03:39]
04. For You [05:41]
05. California [05:28]
06. The Mighty Quinn [06:19]
07. Somewhere In Africa [01:37]
08. The Runner [04:40]
09. Lies (Through The Eighties) [04:36]
10. Joybringer [03:26]
11. Demolition Man [03:46]
12. You Angel You [04:02]
13. Don't Kill It Carol [06:14]
14. Spirits In The Night [06:29]
15. Angels At My Gate [04:50]
16. Third World Service [05:15]

Exact Audio Copy V0.99 prebeta 5 from 4. May 2009

EAC extraction logfile from 19. June 2015, 15:19

Manfred Mann's Earth Band / The Very Best Of (ltd. Edition) CD 1

Used drive : ATAPI iHAS122 C Adapter: 1 ID: 1

Read mode : Secure
Utilize accurate stream : Yes
Defeat audio cache : Yes
Make use of C2 pointers : No

Read offset correction

: 6
Overread into Lead-In and Lead-Out : No
Fill up missing offset samples with silence : Yes
Delete leading and trailing silent blocks : No
Null samples used in CRC calculations : Yes
Used interface
: Native Win32 interface for Win NT & 2000

Used output format : Internal WAV Routines
Sample format : 44.100 Hz; 16 Bit; Stereo

TOC of the extracted CD Track | Start | Length | Start sector | End sector
1 | 0:00.32 | 7:05.20 | 32 | 31926 2 | 7:05.52 | 3:57.70 | 31927 | 49771 3 | 11:03.47 | 3:38.63 | 49772 | 66184 4 | 14:42.35 | 5:40.55 | 66185 | 91739 5 | 20:23.15 | 5:27.20 | 91740 | 116284 6 | 25:50.35 | 6:18.62 | 116285 | 144696 7 | 32:09.22 | 1:36.63 | 144697 | 151959 8 | 33:46.10 | 4:39.02 | 151960 | 172886 9 | 38:25.12 | 4:35.38 | 172887 | 193549
10 | 43:00.50 | 3:26.00 | 193550 | 208999
11 | 46:26.50 | 3:45.42 | 209000 | 225916
12 | 50:12.17 | 4:01.20 | 225917 | 244011
13 | 54:13.37 | 6:13.43 | 244012 | 272029
14 | 60:27.05 | 6:28.07 | 272030 | 301136
15 | 66:55.12 | 4:49.28 | 301137 | 322839
16 | 71:44.40 | 5:14.67 | 322840 | 346456

Range status and errors

Selected range Filename C:\Users\London\Desktop\Manfred Mann's Earth Band - The Very Best Of (ltd. Edition) CD 1.wav Peak level 92.1 %
Range quality 100.0 %
Test CRC 3AA121B2
Copy CRC 3AA121B2
Copy OK

No errors occurred


AccurateRip summary

Track 1 accurately ripped (confidence 79) [286D749F]
Track 2 accurately ripped (confidence 79) 711DA9A
Track 3 accurately ripped (confidence 82) 56FB822
Track 4 accurately ripped (confidence 79) [E1907EB6]
Track 5 accurately ripped (confidence 78) [F272358A]
Track 6 accurately ripped (confidence 80) [EECD8C9D]
Track 7 accurately ripped (confidence 80) [1EA49C41]
Track 8 accurately ripped (confidence 80) [EB65D809]
Track 9 accurately ripped (confidence 80) [A7200594]
Track 10 accurately ripped (confidence 78) [1E144621]
Track 11 accurately ripped (confidence 78) [EFF9344D]
Track 12 accurately ripped (confidence 78) [EBB5FA4E]
Track 13 accurately ripped (confidence 79) [AB624C55]
Track 14 accurately ripped (confidence 77) [7927D207]
Track 15 accurately ripped (confidence 79) [48BEE604]
Track 16 accurately ripped (confidence 74) [71E926F8]

All tracks accurately ripped

End of status report

foobar2000 1.2.6 / Dynamic Range Meter 1.1.1
log date: 2015-06-20 16:57:55

------
Analyzed: Manfred Mann's Earth Band / The Very Best Of (ltd. Edition) CD 1
------

DR Peak RMS Duration Track
------
DR12 -1.05 dB -15.29 dB 7:05 01-Blinded By The Light (Ext.Version)
DR11 -0.79 dB -15.03 dB 3:58 02-Questions
DR12 -1.40 dB -16.11 dB 3:39 03-Davy's On The Road Again
DR13 -1.12 dB -16.59 dB 5:41 04-For You
DR13 -2.00 dB -17.41 dB 5:27 05-California
DR13 -0.92 dB -16.83 dB 6:19 06-The Mighty Quinn
DR12 -2.48 dB -16.89 dB 1:37 07-Somewhere In Africa
DR13 -0.86 dB -17.34 dB 4:39 08-The Runner
DR11 -1.57 dB -15.07 dB 4:36 09-Lies (Through The Eighties)
DR11 -1.51 dB -15.56 dB 3:26 10-Joybringer
DR13 -1.20 dB -15.97 dB 3:46 11-Demolition Man
DR12 -1.23 dB -15.19 dB 4:01 12-You Angel You
DR13 -1.09 dB -16.46 dB 6:14 13-Don't Kill It Carol
DR12 -1.65 dB -17.66 dB 6:28 14-Spirits In The Night
DR14 -1.40 dB -17.97 dB 4:49 15-Angels At My Gate
DR13 -0.71 dB -16.27 dB 5:15 16-Third World Service
------

Number of tracks: 16
Official DR value: DR12

Samplerate: 44100 Hz
Channels: 2
Bits per sample: 16
Bitrate: 835 kbps
Codec: FLAC

[CUETools log; Date: 20.06.2015 16:51:20; Version: 2.1.5]
Pregap length 00:00:32.
[CTDB TOCID: CCVBOxV6ySPb6dWwLtjA6Iq_fB8-] found.
Track | CTDB Status
1 | (30/30) Accurately ripped
2 | (30/30) Accurately ripped
3 | (30/30) Accurately ripped
4 | (30/30) Accurately ripped
5 | (30/30) Accurately ripped
6 | (30/30) Accurately ripped
7 | (30/30) Accurately ripped
8 | (30/30) Accurately ripped
9 | (30/30) Accurately ripped
10 | (30/30) Accurately ripped
11 | (30/30) Accurately ripped
12 | (30/30) Accurately ripped
13 | (30/30) Accurately ripped
14 | (30/30) Accurately ripped
15 | (30/30) Accurately ripped
16 | (29/30) Accurately ripped
[AccurateRip ID: 002cde0c-0214cb76-df120b10] found.
Track [ CRC | V2 ] Status
01 [286d749f|3ebbc3b3] (079+064/143) Accurately ripped
02 711da9a|65c71fef (079+063/142) Accurately ripped
03 56fb822|4ed907d1 (082+063/145) Accurately ripped
04 [e1907eb6|94012052] (079+064/143) Accurately ripped
05 [f272358a|d83302e9] (078+064/142) Accurately ripped
06 [eecd8c9d|8f749947] (080+064/144) Accurately ripped
07 [1ea49c41|da752d47] (080+063/143) Accurately ripped
08 [eb65d809|eeff08da] (080+064/144) Accurately ripped
09 [a7200594|c79dbd75] (080+063/143) Accurately ripped
10 [1e144621|1143b1af] (078+063/141) Accurately ripped
11 [eff9344d|a7a92ad5] (078+062/140) Accurately ripped
12 [ebb5fa4e|a9653608] (078+063/141) Accurately ripped
13 [ab624c55|09e09986] (079+061/140) Accurately ripped
14 [7927d207|32b9da94] (077+063/140) Accurately ripped
15 [48bee604|fe3d2e9d] (079+063/142) Accurately ripped
16 [71e926f8|ba7e1b9b] (074+063/137) Accurately ripped

Track Peak [ CRC32 ] [W/O NULL] [ LOG ]
-- 92,1 [3AA121B2] [3B3FF722] CRC32
01 88,5 [62689A46] [3A9E286C]
02 91,2 [254E76EA] [3C3C7F8A]
03 85,1 [911DBBE7] [F851FCAB]
04 87,8 [ABDD0005] [51EECBDC]
05 79,4 [89BA933C] [9527A08B]
06 89,9 [3565CDEF] [51B5FE3B]
07 75,1 [D5B0E445] [D494BB54]
08 90,5 [F7E7F2A0] [C5DD0B71]
09 83,4 [4CE49CA2] [6D288045]
10 84,0 [CED264F2] [6D9A7346]
11 87,0 [FF1726F2] [A4C88FA6]
12 86,7 735F635 [A7598F18]
13 88,2 B8B50B3 [84C869FD]
14 82,6 [4DAF14AF] [CEBBAE22]
15 85,1 [39890419] AC92599
16 92,1 [1642B4CF] [6A445F07]

Manfred Mann's Earth Band - The Very Best Of: Vol. 1 & 2 (1993) [Limited Edition]

Track List CD2:

01. Singing The Dolphin Through [08:15]
02. The Road To Babylon [06:54]
03. Martha's Madman [04:50]
04. It's All Over Now, Baby Blue [04:27]
05. Redemption Song (No Kwazulu) [07:35]
06. Father Of Day, Father Of Night [09:53]
07. California Coastline [02:46]
08. Tribal Statistics [04:15]
09. Nightingales And Bombers [04:57]
10. Solar Fire [05:15]
11. Tribute [05:30]
12. No Guarantee [03:47]
13. Blinded By The Light (Live) [07:42]

Exact Audio Copy V0.99 prebeta 5 from 4. May 2009

EAC extraction logfile from 19. June 2015, 18:26

Manfred Mann's Earth Band / The Very Best Of (ltd. Edition) CD 2

Used drive : ATAPI iHAS122 C Adapter: 1 ID: 1

Read mode : Secure
Utilize accurate stream : Yes
Defeat audio cache : Yes
Make use of C2 pointers : No

Read offset correction

: 6
Overread into Lead-In and Lead-Out : No
Fill up missing offset samples with silence : Yes
Delete leading and trailing silent blocks : No
Null samples used in CRC calculations : Yes
Used interface
: Native Win32 interface for Win NT & 2000

Used output format : Internal WAV Routines
Sample format : 44.100 Hz; 16 Bit; Stereo

TOC of the extracted CD Track | Start | Length | Start sector | End sector
1 | 0:00.32 | 8:14.10 | 32 | 37091 2 | 8:14.42 | 6:53.63 | 37092 | 68129 3 | 15:08.30 | 4:49.05 | 68130 | 89809 4 | 19:57.35 | 4:26.60 | 89810 | 109819 5 | 24:24.20 | 7:34.40 | 109820 | 143909 6 | 31:58.60 | 9:52.32 | 143910 | 188341 7 | 41:51.17 | 2:45.35 | 188342 | 200751 8 | 44:36.52 | 4:14.03 | 200752 | 219804 9 | 48:50.55 | 4:56.37 | 219805 | 242041
10 | 53:47.17 | 5:14.03 | 242042 | 265594
11 | 59:01.20 | 5:29.47 | 265595 | 290316
12 | 64:30.67 | 3:46.50 | 290317 | 307316
13 | 68:17.42 | 7:41.40 | 307317 | 341931

Range status and errors

Selected range Filename C:\Users\London\Desktop\Manfred Mann's Earth Band - The Very Best Of (ltd. Edition) CD 2.wav Peak level 94.4 %
Range quality 100.0 %
Test CRC B0E4AA82
Copy CRC B0E4AA82
Copy OK

No errors occurred


AccurateRip summary

Track 1 accurately ripped (confidence 40) [8F74FCC9]
Track 2 accurately ripped (confidence 42) [E0C45A1F]
Track 3 accurately ripped (confidence 42) [3BF2F3CC]
Track 4 accurately ripped (confidence 42) [F79369E5]
Track 5 accurately ripped (confidence 42) [D1E55700]
Track 6 accurately ripped (confidence 42) [3077FE7A]
Track 7 accurately ripped (confidence 41) [328E4D1B]
Track 8 accurately ripped (confidence 42) [72B6193B]
Track 9 accurately ripped (confidence 41) [2911F144]
Track 10 accurately ripped (confidence 42) [D47976D6]
Track 11 accurately ripped (confidence 42) [9A10D461]
Track 12 accurately ripped (confidence 42) [C62B1D0C]
Track 13 accurately ripped (confidence 40) [7225851B]

All tracks accurately ripped

End of status report

foobar2000 1.2.6 / Dynamic Range Meter 1.1.1
log date: 2015-06-20 17:01:09

------
Analyzed: Manfred Mann's Earth Band / The Very Best Of (ltd. Edition) CD 2
------

DR Peak RMS Duration Track
------
DR12 -1.08 dB -16.14 dB 8:14 01-Singing The Dolphin Through
DR12 -0.50 dB -15.90 dB 6:54 02-The Road To Babylon
DR14 -0.66 dB -16.59 dB 4:49 03-Martha's Madman
DR13 -1.37 dB -18.89 dB 4:27 04-It's All Over Now, Baby Blue
DR12 -1.37 dB -16.27 dB 7:35 05-Redemption Song (No Kwazulu)
DR11 -1.06 dB -15.63 dB 9:52 06-Father Of Day, Father Of Night
DR13 -1.66 dB -18.10 dB 2:45 07-California Coastline
DR12 -2.11 dB -16.31 dB 4:14 08-Tribal Statistics
DR12 -1.13 dB -16.35 dB 4:56 09-Nightingales And Bombers
DR11 -0.99 dB -14.75 dB 5:14 10-Solar Fire
DR12 -2.44 dB -17.76 dB 5:30 11-Tribute
DR12 -1.23 dB -16.33 dB 3:47 12-No Guarantee
DR11 -0.66 dB -14.72 dB 7:42 13-Blinded By The Light (Live)
------

Number of tracks: 13
Official DR value: DR12

Samplerate: 44100 Hz
Channels: 2
Bits per sample: 16
Bitrate: 871 kbps
Codec: FLAC

[CUETools log; Date: 20.06.2015 16:44:09; Version: 2.1.5]
Pregap length 00:00:32.
[CTDB TOCID: z70oKNsxGUt.dnr4qFfqXXt1V4A-] found.
Track | CTDB Status
1 | (29/29) Accurately ripped
2 | (29/29) Accurately ripped
3 | (29/29) Accurately ripped
4 | (29/29) Accurately ripped
5 | (29/29) Accurately ripped
6 | (29/29) Accurately ripped
7 | (29/29) Accurately ripped
8 | (28/29) Accurately ripped
9 | (28/29) Accurately ripped
10 | (29/29) Accurately ripped
11 | (28/29) Accurately ripped
12 | (28/29) Accurately ripped
13 | (27/29) Accurately ripped
[AccurateRip ID: 002638c0-0176c567-cb11cf0d] found.
Track [ CRC | V2 ] Status
01 [8f74fcc9|dbd6d903] (040+035/137) Accurately ripped
02 [e0c45a1f|d76d46bb] (042+036/141) Accurately ripped
03 [3bf2f3cc|93852d6a] (042+036/141) Accurately ripped
04 [f79369e5|d8356e2f] (042+036/141) Accurately ripped
05 [d1e55700|f832eba2] (042+036/141) Accurately ripped
06 [3077fe7a|b31311e5] (042+036/141) Accurately ripped
07 [328e4d1b|f135b0cd] (041+036/140) Accurately ripped
08 [72b6193b|3e4c83f5] (042+036/140) Accurately ripped
09 [2911f144|653aa641] (041+036/139) Accurately ripped
10 [d47976d6|db3d40d5] (042+037/142) Accurately ripped
11 [9a10d461|e7d62555] (042+037/142) Accurately ripped
12 [c62b1d0c|1db6caee] (042+037/143) Accurately ripped
13 [7225851b|5c1ba37a] (040+035/137) Accurately ripped
Offsetted by -862:
01 [cc308cac] (035/137) Accurately ripped
02 [5be6b864] (035/141) Accurately ripped
03 7b84501 (035/141) Accurately ripped
04 [782aa8cf] (035/141) Accurately ripped
05 [9aeb788b] (035/141) Accurately ripped
06 [63af988f] (035/141) Accurately ripped
07 [addb7298] (035/140) Accurately ripped
08 [2e68ae48] (035/140) Accurately ripped
09 [5516c9e3] (034/139) Accurately ripped
10 [789415ca] (035/142) Accurately ripped
11 [80e15f76] (035/142) Accurately ripped
12 [569f878f] (036/143) Accurately ripped
13 [d7e11382] (034/137) Accurately ripped

Track Peak [ CRC32 ] [W/O NULL] [ LOG ]
-- 94,4 0E4AA82 [F6EA432A] CRC32
01 88,2 [47ED2B62] [5D6BF56C]
02 94,4 [53BD439A] [D4167D26]
03 92,7 [1F93221E] [114E41D5]
04 85,3 [49B9105E] [F8699205]
05 85,4 [207AF329] 1148E5C
06 88,5 [54B6E4E8] [E059310E]
07 82,6 [C4B2F8F5] [90130857]
08 78,4 [4DDCAA10] [EA2894A5]
09 87,7 [1992E68A] [FB46AF6A]
10 89,2 8ADDACA [959B7492]
11 75,5 [6F08DE02] [D90D8BEE]
12 86,8 [C2ECEEAD] [98E041E5]
13 92,7 [D5DAE011] [A0A78124]

Manfred Mann's Earth Band - The Very Best Of: Vol. 1 & 2 (1993) [Limited Edition]



DOWNLOAD LINKS
Buy Premium From My Links To Get Resumable Support & Max Speed & To Support Me

Rapidgator.net:
http://rapidgator.net/file/a1183a7e0cd92e1a4bf72fbe3407c022/pj6dd.MnfrdMEBnd93TVBOCD1flac.part1.rar.html
http://rapidgator.net/file/3450fa950196d4acc4feffdef4deaccb/pj6dd.MnfrdMEBnd93TVBOCD1flac.part2.rar.html
http://rapidgator.net/file/e82afdf63f2d2db41da760c0a0f3422d/pj6dd.MnfrdMEBnd93TVBOCD1mp3.rar.html
http://rapidgator.net/file/49904f9e252ba58b186b7d7844c3923e/pj6dd.MnfrdMEBnd93TVBOCD2flac.part1.rar.html
http://rapidgator.net/file/c1a07de67557dac0201a98ef5d397a5a/pj6dd.MnfrdMEBnd93TVBOCD2flac.part2.rar.html
http://rapidgator.net/file/eeeb7a731ad7286c7d14b5c1e7d7aef9/pj6dd.MnfrdMEBnd93TVBOCD2mp3.rar.html

Uploaded.net:
http://uploaded.net/file/lx76vk66/pj6dd.MnfrdMEBnd93TVBOCD1flac.part1.rar
http://uploaded.net/file/ds12tmkx/pj6dd.MnfrdMEBnd93TVBOCD1flac.part2.rar
http://uploaded.net/file/l2gw3ijr/pj6dd.MnfrdMEBnd93TVBOCD1mp3.rar
http://uploaded.net/file/vmjm791k/pj6dd.MnfrdMEBnd93TVBOCD2flac.part1.rar
http://uploaded.net/file/3xgan406/pj6dd.MnfrdMEBnd93TVBOCD2flac.part2.rar
http://uploaded.net/file/7rpv8pp2/pj6dd.MnfrdMEBnd93TVBOCD2mp3.rar

Uploadable.ch:
http://www.uploadable.ch/file/Se3K2rkJK2MU/pj6dd.MnfrdMEBnd93TVBOCD1flac.part1.rar
http://www.uploadable.ch/file/Rr2ty5RmSXKs/pj6dd.MnfrdMEBnd93TVBOCD1flac.part2.rar
http://www.uploadable.ch/file/YRV9HtwvGmeh/pj6dd.MnfrdMEBnd93TVBOCD1mp3.rar
http://www.uploadable.ch/file/8tuqXWrDEAHZ/pj6dd.MnfrdMEBnd93TVBOCD2flac.part1.rar
http://www.uploadable.ch/file/2jyTFvyx57bF/pj6dd.MnfrdMEBnd93TVBOCD2flac.part2.rar
http://www.uploadable.ch/file/9fcn7AWEFU5f/pj6dd.MnfrdMEBnd93TVBOCD2mp3.rar

Links are Interchangeable - No Password - Single Extraction
Direct Download

Tags: Manfred, Limited

Manfred Mann's Earth Band - The Very Best Of: Vol. 1 & 2 (1993) [Limited Edition] Download via Hotfile Rapidshare Fileserve Megaupload & FileSonic, Manfred Mann's Earth Band - The Very Best Of: Vol. 1 & 2 (1993) [Limited Edition] free torrent downloads included crack, serial, keygen.Manfred Mann's Earth Band - The Very Best Of: Vol. 1 & 2 (1993) [Limited Edition] Fast Download via Rapidshare Hotfile Fileserve Filesonic Megaupload, Manfred Mann's Earth Band - The Very Best Of: Vol. 1 & 2 (1993) [Limited Edition] Torrents and Emule Download or anything related.
Leave a Comment
Your Name:
E-Mail:
Add Comments:

Enter Code: