David Bowie - Lodger (1979) [1991, EMI, CDP 79 7724 2]

Download Now

David Bowie - Lodger (1979) [1991, EMI, CDP 79 7724 2]

David Bowie - Lodger (1979)
EAC | Flac(Image) + Cue + Log & MP3 CBR 320Kbps
EMI, CDP 79 7724 2 | ~ 321 or 142 Mb | Scans Included
Art Rock / Experimental

"On the surface, Lodger is the most accessible of the three Berlin-era records David Bowie made with Brian Eno, simply because there are no instrumentals and there are a handful of concise pop songs. Nevertheless, Lodger is still gnarled and twisted avant pop; what makes it different is how it incorporates such experimental tendencies into genuine songs, something that Low and Heroes purposely avoided..."


Tracklist:

01. David Bowie - Fantastic Voyage [2:59]
02. David Bowie - African Night Flight [2:58]
03. David Bowie - Move On [3:21]
04. David Bowie - Yassassin (Turkish For: Long Live) [4:13]
05. David Bowie - Red Sails [3:47]
06. David Bowie - D.J. [4:02]
07. David Bowie - Look Back In Anger [3:10]
08. David Bowie - Boys Keep Swinging [3:20]
09. David Bowie - Repetition [3:01]
10. David Bowie - Red Money [4:20]
11. David Bowie - I Pray, Ole (Previously Unissued Track Recorded 1979) [3:56]
12. David Bowie - Look Back In Anger (New Version Recorded 1988) [6:58]

Exact Audio Copy V1.0 beta 3 from 29. August 2011

EAC extraction logfile from 30. January 2013, 10:30

David Bowie / Lodger

Used drive : Optiarc DVD RW AD-5280S Adapter: 2 ID: 1

Read mode : Secure
Utilize accurate stream : Yes
Defeat audio cache : Yes
Make use of C2 pointers : No

Read offset correction

: 48
Overread into Lead-In and Lead-Out : No
Fill up missing offset samples with silence : Yes
Delete leading and trailing silent blocks : No
Null samples used in CRC calculations : Yes
Used interface
: Installed external ASPI interface

Used output format : Internal WAV Routines
Sample format : 44.100 Hz; 16 Bit; Stereo

TOC of the extracted CD Track | Start | Length | Start sector | End sector
1 | 0:00.33 | 2:58.50 | 33 | 13432 2 | 2:59.08 | 2:58.00 | 13433 | 26782 3 | 5:57.08 | 3:21.00 | 26783 | 41857 4 | 9:18.08 | 4:13.00 | 41858 | 60832 5 | 13:31.08 | 3:47.00 | 60833 | 77857 6 | 17:18.08 | 4:02.00 | 77858 | 96007 7 | 21:20.08 | 3:10.00 | 96008 | 110257 8 | 24:30.08 | 3:20.00 | 110258 | 125257 9 | 27:50.08 | 3:01.00 | 125258 | 138832
10 | 30:51.08 | 4:20.00 | 138833 | 158332
11 | 35:11.08 | 3:56.00 | 158333 | 176032
12 | 39:07.08 | 6:57.40 | 176033 | 207347

Range status and errors

Selected range Filename D:\David Bowie - Lodger.wav Peak level 81.2 %
Extraction speed 3.7 X
Range quality 99.9 %
Test CRC 72313F95
Copy CRC 72313F95
Copy OK

No errors occurred


AccurateRip summary

Track 1 accurately ripped (confidence 3) [8EE156C2] (AR v2)
Track 2 accurately ripped (confidence 3) [1351A0AD] (AR v2)
Track 3 accurately ripped (confidence 3) [D7065E8B] (AR v2)
Track 4 accurately ripped (confidence 3) [9E49151B] (AR v2)
Track 5 accurately ripped (confidence 3) [F42A0EBD] (AR v2)
Track 6 accurately ripped (confidence 3) [6A0DD16D] (AR v2)
Track 7 accurately ripped (confidence 3) [C9AF22AB] (AR v2)
Track 8 accurately ripped (confidence 3) [4FEE7550] (AR v2)
Track 9 accurately ripped (confidence 3) [F37781A9] (AR v2)
Track 10 accurately ripped (confidence 3) EE34E14 (AR v2)
Track 11 accurately ripped (confidence 3) [1EFA0160] (AR v2)
Track 12 accurately ripped (confidence 3) [ACA37352] (AR v2)

All tracks accurately ripped

End of status report

foobar2000 1.1.2 / Dynamic Range Meter 1.1.1
log date: 2015-06-16 22:33:17

------
Analyzed: David Bowie / Lodger
------

DR Peak RMS Duration Track
------
DR12 -1.93 dB -16.55 dB 2:59 01-Fantastic Voyage
DR12 -2.88 dB -17.01 dB 2:58 02-African Night Flight
DR12 -1.80 dB -15.17 dB 3:21 03-Move On
DR13 -1.80 dB -17.46 dB 4:13 04-Yassassin (Turkish For: Long Live)
DR10 -1.90 dB -13.68 dB 3:47 05-Red Sails
DR11 -1.80 dB -14.33 dB 4:02 06-D.J.
DR11 -1.80 dB -15.36 dB 3:10 07-Look Back In Anger
DR10 -1.80 dB -14.45 dB 3:20 08-Boys Keep Swinging
DR13 -1.83 dB -16.51 dB 3:01 09-Repetition
DR12 -1.80 dB -16.78 dB 4:20 10-Red Money
DR11 -1.90 dB -14.95 dB 3:56 11-I Pray, Ole (Previously Unissued Track Recorded 1979)
DR12 -1.90 dB -16.31 dB 6:58 12-Look Back In Anger (New Version Recorded 1988)
------

Number of tracks: 12
Official DR value: DR12

Samplerate: 44100 Hz
Channels: 2
Bits per sample: 16
Bitrate: 846 kbps
Codec: FLAC

[CUETools log; Date: 20.06.2015 21:07:03; Version: 2.1.4]
Pregap length 00:00:33.
[CTDB TOCID: oGX1Ql0pM_l5oVA0kqGwG8O7czk-] found.
Track | CTDB Status
1 | (16/18) Accurately ripped
2 | (16/18) Accurately ripped
3 | (16/18) Accurately ripped
4 | (16/18) Accurately ripped
5 | (15/18) Accurately ripped
6 | (16/18) Accurately ripped
7 | (16/18) Accurately ripped
8 | (16/18) Accurately ripped
9 | (16/18) Accurately ripped
10 | (16/18) Accurately ripped
11 | (16/18) Accurately ripped
12 | (16/18) Accurately ripped
[AccurateRip ID: 0012cfe5-00b1ffc4-8e0acc0c] found.
Track [ CRC | V2 ] Status
01 [3103bd1a|8ee156c2] (015+018/100) Accurately ripped
02 [a252cbf0|1351a0ad] (015+018/101) Accurately ripped
03 [6184bdab|d7065e8b] (016+018/101) Accurately ripped
04 2c0d0cc|9e49151b (015+018/101) Accurately ripped
05 [cfd6a835|f42a0ebd] (015+018/098) Accurately ripped
06 [668ba46e|6a0dd16d] (016+018/102) Accurately ripped
07 [7a764f5f|c9af22ab] (015+018/100) Accurately ripped
08 [9c71adcb|4fee7550] (016+018/100) Accurately ripped
09 [5dacf305|f37781a9] (015+018/097) Accurately ripped
10 [786d847a|bee34e14] (015+018/100) Accurately ripped
11 [f9a7b5fc|1efa0160] (017+017/098) Accurately ripped
12 [27e6cc75|aca37352] (017+017/098) Accurately ripped
Offsetted by -547:
01 f664112 (037/100) Accurately ripped
02 ab8c1fc (038/101) Accurately ripped
03 [e087c1b6] (038/101) Accurately ripped
04 [cb7f9ec2] (038/101) Accurately ripped
05 [4873784d] (036/098) Accurately ripped
06 [4bac4e7f] (038/102) Accurately ripped
07 [471af046] (038/100) Accurately ripped
08 [43b674e2] (037/100) Accurately ripped
09 [ada1937a] (035/097) Accurately ripped
10 3ce7dd7 (037/100) Accurately ripped
11 [fdd0f707] (035/098) Accurately ripped
12 [57e91de5] (035/098) Accurately ripped
Offsetted by -565:
01 [cde9bae2] (000/100) No match (V2 was not tested)
02 [300ef344] (000/101) No match (V2 was not tested)
03 [79117338] (000/101) No match (V2 was not tested)
04 [afc3ad06] (000/101) No match (V2 was not tested)
05 [d49c32dd] (000/098) No match (V2 was not tested)
06 [84d25aa5] (000/102) No match (V2 was not tested)
07 [6a6347f0] (000/100) No match (V2 was not tested)
08 [9c0de5ac] (000/100) No match (V2 was not tested)
09 [f6769cf8] (000/097) No match (V2 was not tested)
10 [eedb82c5] (000/100) No match (V2 was not tested)
11 [4ab4d689] (000/098) No match (V2 was not tested)
12 [23ab6a85] (000/098) No match (V2 was not tested)

Track Peak [ CRC32 ] [W/O NULL] [ LOG ]
-- 81,2 [72313F95] [F5F22A9E] CRC32
01 80,0 [ACF66650] 526BBEE
02 71,7 [0E7B3B72] 9EFFC88
03 81,2 [60A9B983] [3724FC41]
04 81,2 [E85784CE] [121787D0]
05 80,3 [4E80EFA3] [384AD94B]
06 81,2 FA6C4C6 [35F3270C]
07 81,2 [A62E80FB] [2F08A404]
08 81,2 [958E1F0A] [50C0F8FC]
09 80,9 [2BA35782] [D51F25E6]
10 81,2 [C6A2EDE4] [5FAA439B]
11 80,3 [35124E9F] [AE868B7B]
12 80,3 [1168ED18] [DADB06C6]

David Bowie - Lodger (1979) [1991, EMI, CDP 79 7724 2]

DOWNLOAD LINKS
Buy Premium From My Links To Get Resumable Support & Max Speed & To Support Me


Links are Interchangeable - No Password - Single Extraction
Direct Download

Tags: Lodger

David Bowie - Lodger (1979) [1991, EMI, CDP 79 7724 2] Download via Hotfile Rapidshare Fileserve Megaupload & FileSonic, David Bowie - Lodger (1979) [1991, EMI, CDP 79 7724 2] free torrent downloads included crack, serial, keygen.David Bowie - Lodger (1979) [1991, EMI, CDP 79 7724 2] Fast Download via Rapidshare Hotfile Fileserve Filesonic Megaupload, David Bowie - Lodger (1979) [1991, EMI, CDP 79 7724 2] Torrents and Emule Download or anything related.
Leave a Comment
Your Name:
E-Mail:
Add Comments:

Enter Code: