Dice - Newborn (2011)

Download Now

Dice - Newborn (2011)

Dice - Newborn (2011)
EAC Rip | FLAC: Image+Cue+Log | 421 Mb | MP3 CBR 320 kbps | 145 Mb | Scans | Time: 01:00:02
Genre: Rock, Space Rock, Crossover Prog | Label: Scene Records | Cat.№: 8827-3

"DICE fans can look forward to six new long tracks that combine with the usual tricky rhythms, catchy melodies and catchy choruses even with the brilliant guitar work from Peter Viertel as trademarks. Saxophonist / flutist Jens Lübeck finished the songs with his imaginative play. On their 17. Band album since founding in 1974, DICE songs flow - DICE songs groove. They again have compositions beyond the 10-minute limit."



Track Listing

01. The Future Is Still Waiting (08:12)
02. Crying Angel (10:02)
03. On The Way (13:52)
04. Dancing With All Gods (10:51)
05. Tomorrows World (06:29)
06. Time Moves In Circles (10:34)

Produced by Christian Nóvé

The Band

* Christian Nóvé - vocals, keyboards, bass, rhythm guitars
* Peter Viertel - lead and rhythm guitars
* Jens Lübeck - sax, flute, sitar
* Tom Tomson - drums

Notes

Based on the dates of 90% of their output and their self-classification as "cosmic prog", DICE would seem to be a new generation German space rock band, albeit in the mold of veterans like ELOY, PINK FLOYD, and even HAWKWIND, but in some sense they were almost contemporaries. The group was formed in 1974, with founder and leader Christian Nove also citing JETHRO TULL and WIGWAM as favourites. However, it was not until 1979 that they released their debut album which included Alto Pappert from KRAAN on saxophone. The 80s and early 90s were quiet other than for live performances.

Dice - Newborn (2011)



Exact Audio Copy V1.0 beta 1 from 15. November 2010

EAC extraction logfile from 11. April 2011, 12:59

Dice / Newborn

Used drive : HL-DT-STDVD-RAM GH22NP20 Adapter: 3 ID: 0

Read mode : Secure
Utilize accurate stream : Yes
Defeat audio cache : Yes
Make use of C2 pointers : No

Read offset correction

: 102
Overread into Lead-In and Lead-Out : No
Fill up missing offset samples with silence : Yes
Delete leading and trailing silent blocks : No
Null samples used in CRC calculations : Yes
Used interface
: Native Win32 interface for Win NT & 2000

Used output format : Пользовательский кодировщик
Selected bitrate : 1024 kBit/s
Quality : High
Add ID3 tag : Yes
Command line compressor : D:\Program Files\Exact Audio Copy\FLAC\FLAC.EXE
Additional command line options : -6 -V -T "ARTIST=%a" -T "TITLE=%t" -T "ALBUM=%g" -T "DATE=%y" -T "TRACKNUMBER=%n" -T "GENRE=%m" -T "COMMENT=%e" %j--picture="%i"%j %s -o %d

TOC of the extracted CD Track | Start | Length | Start sector | End sector
1 | 0:00.00 | 8:11.73 | 0 | 36897 2 | 8:11.73 | 10:02.69 | 36898 | 82116 3 | 18:14.67 | 13:51.73 | 82117 | 144514 4 | 32:06.65 | 10:51.70 | 144515 | 193409 5 | 42:58.60 | 6:29.30 | 193410 | 222614 6 | 49:28.15 | 10:34.20 | 222615 | 270184

Range status and errors

Selected range Filename D:\PARS\My Music\DICE\Dice-Newborn(2011)\Dice - Newborn.wav Peak level 100.0 %
Extraction speed 0.4 X
Range quality 100.0 %
Copy CRC C350E852
Copy OK

No errors occurred


AccurateRip summary

Track 1 not present in database
Track 2 not present in database
Track 3 not present in database
Track 4 not present in database
Track 5 not present in database
Track 6 not present in database

None of the tracks are present in the AccurateRip database

End of status report

Many thanks to the original uploader: PARS
DOWNLOAD:
Buy Premium To Support Me & Get Resumable Support & Max Speed


Links are Interchangeable - No Password
Direct Download

Tags: Newborn

Dice - Newborn (2011) Download via Hotfile Rapidshare Fileserve Megaupload & FileSonic, Dice - Newborn (2011) free torrent downloads included crack, serial, keygen.Dice - Newborn (2011) Fast Download via Rapidshare Hotfile Fileserve Filesonic Megaupload, Dice - Newborn (2011) Torrents and Emule Download or anything related.
Leave a Comment
Your Name:
E-Mail:
Add Comments:

Enter Code: