The Blues Brothers Band - Live in Montreux (1990)

Download Now

The Blues Brothers Band - Live in Montreux (1990)

The Blues Brothers Band - Live in Montreux (1990)
EAC | FLAC | Image (Cue&Log) ~ 413 Mb (incl 5%) | Mp3 (CBR320) ~ 177 Mb (incl 5%) | Scans included
Genre: Blues, Rhythm and Blues, Blues Rock, Soul | Label: WEA | # 9031-71614-2 | Time: 00:58:19

"This is a fine CD of Blues Brothers material, featuring the original Blues Brothers Band and frontman Larry Thurston, performing at Montreux Jazz Festival on July 12, 1989. From the late '80s through the early 90's, the Blues Brothers Band was a popular touring act throughout Europe, with Mr. Thurston doing a fine job on lead vocals. None of the other 90's Blues Brothers frontmen (Dan Ackroyd, John Goodman, Jim Belushi) appear on this CD or in this Line-Up. Not exactly "essential", but a good performance of the tour band during this period of the band's history."

"After John Belushi's death in 1982, many assumed that they had heard the last of the Blues Brothers. While it seemed that way during the period immediately following Belushi's passing, by the end of the decade, most of the group (including such notables as Matt "Guitar" Murphy, Steve "The Colonel" Cropper, Donald "Duck" Dunn, Lou "Blue Lou" Marini, Tom "Bones" Malone, and Alan "Mr. Fabulous" Rubin) was raring to go once more. One major hurdle remained, however -- who would supply the vocals? With Belushi obviously out of the running, Dan Aykroyd decided for one reason or another not to partake when the group landed a one-off gig at the Montreux Casino on July 12, 1989. Hence, replacement frontmen were lined up -- Eddie Floyd (best known for the hit "Knock On Wood") and Larry Thurston (who previously was a vocalist in Matt "Guitar" Murphy's band). Additionally, a set list was compiled of such favorites as "Soul Man" and "Sweet Home Chicago," as well as a handful of tracks never performed before by the band. And while there's no denying the greatness of the players (anytime two original members of the legendary Booker T. & the MG's are present, how bad could it be?), the whole attraction of the Blues Brothers was having Belushi and Aykroyd doing their shtick at the front of the stage. Not horrible, but what's the point without Elwood and Jake?

Review by Greg Prato, Allmusic.com
"


The Blues Brothers Band at Allmusic
The Blues Brothers Band at Wiki

Tracklist:

01. Hold On, I'm Comin' (03:04)
02. In the Midnight Hour (02:52)
03. She Caught the Katy (03:51)
04. The Thrill Is Gone (06:26)
05. Can't Turn You Loose (03:20)
06. Sweet Home Chicago (06:55)
07. Knock on Wood (03:32)
08. Raise Your Hand (02:36)
09. Peter Gunn (04:55)
10. Soulfinger (03:26)
11. Hey, Bartender (05:33)
12. Soul Man (03:36)
13. Everybody Needs Somebody to Love (03:51)
14. Green Onions (04:17)


Exact Audio Copy V0.99 prebeta 5 from 4. May 2009

EAC extraction logfile from 9. December 2009, 0:28

The Blues Brothers Band / Live in Montreux

Used drive : PLEXTOR CD-R PX-230A Adapter: 1 ID: 1

Read mode : Secure
Utilize accurate stream : Yes
Defeat audio cache : Yes
Make use of C2 pointers : No

Read offset correction

: 738
Overread into Lead-In and Lead-Out : No
Fill up missing offset samples with silence : Yes
Delete leading and trailing silent blocks : No
Null samples used in CRC calculations : Yes
Used interface
: Installed external ASPI interface

Used output format : User Defined Encoder
Selected bitrate : 1024 kBit/s
Quality : High
Add ID3 tag : No
Command line compressor : C:\Program Files\Exact Audio Copy\FLAC\FLAC.EXE
Additional command line options : -6 -V -T "ARTIST=%a" -T "TITLE=%t" -T "ALBUM=%g" -T "DATE=%y" -T "TRACKNUMBER=%n" -T "GENRE=%m" -T "COMMENT=%e" %s -o %d

TOC of the extracted CD Track | Start | Length | Start sector | End sector
1 | 0:00.00 | 3:04.50 | 0 | 13849 2 | 3:04.50 | 2:52.53 | 13850 | 26802 3 | 5:57.28 | 3:51.22 | 26803 | 44149 4 | 9:48.50 | 6:26.00 | 44150 | 73099 5 | 16:14.50 | 3:20.10 | 73100 | 88109 6 | 19:34.60 | 6:55.05 | 88110 | 119239 7 | 26:29.65 | 3:32.20 | 119240 | 135159 8 | 30:02.10 | 2:36.60 | 135160 | 146919 9 | 32:38.70 | 4:55.10 | 146920 | 169054
10 | 37:34.05 | 3:26.10 | 169055 | 184514
11 | 41:00.15 | 5:33.48 | 184515 | 209537
12 | 46:33.63 | 3:36.17 | 209538 | 225754
13 | 50:10.05 | 3:51.10 | 225755 | 243089
14 | 54:01.15 | 4:17.60 | 243090 | 262424

Range status and errors

Selected range Filename J:\Rips\The Blues Brothers Band - Live in Montreux.wav Peak level 100.0 %
Range quality 99.9 %
Test CRC 1B50E239
Copy CRC 1B50E239
Copy OK

No errors occurred


AccurateRip summary

Track 1 accurately ripped (confidence 8) [01C4515A]
Track 2 accurately ripped (confidence 8) 0D364A2
Track 3 accurately ripped (confidence 8) [1E78E133]
Track 4 accurately ripped (confidence 8) [FFCDA70C]
Track 5 accurately ripped (confidence 8) [59B6935F]
Track 6 accurately ripped (confidence 8) [6068F697]
Track 7 accurately ripped (confidence 8) [62C1B90E]
Track 8 accurately ripped (confidence 8) [6186D572]
Track 9 accurately ripped (confidence 8) [FBF9A26E]
Track 10 accurately ripped (confidence 8) [2A31B043]
Track 11 accurately ripped (confidence 8) 84F3CE8
Track 12 accurately ripped (confidence 8) [5233839A]
Track 13 accurately ripped (confidence 8) [D5C07647]
Track 14 accurately ripped (confidence 8) [28FAFFA5]

All tracks accurately ripped

End of status report

foobar2000 1.2 / Dynamic Range Meter 1.1.1
log date: 2015-06-22 16:16:13

------
Analyzed: The Blues Brothers Band / Live in Montreux
------

DR Peak RMS Duration Track
------
DR17 -0.24 dB -19.25 dB 3:05 01-Hold On, I'm Comin'
DR18 -0.01 dB -19.11 dB 2:53 02-In the Midnight Hour
DR17 0.00 dB -18.73 dB 3:51 03-She Caught the Katy
DR18 0.00 dB -21.43 dB 6:26 04-The Thrill Is Gone
DR17 -0.24 dB -18.95 dB 3:20 05-Can't Turn You Loose
DR16 -0.24 dB -18.01 dB 6:55 06-Sweet Home Chicago
DR16 -0.24 dB -17.20 dB 3:32 07-Knock on Wood
DR16 -0.24 dB -18.03 dB 2:37 08-Raise Your Hand
DR18 -0.24 dB -19.49 dB 4:55 09-Peter Gunn
DR18 -0.24 dB -19.85 dB 3:26 10-Soulfinger
DR16 -0.25 dB -18.16 dB 5:34 11-Hey, Bartender
DR15 -0.24 dB -16.88 dB 3:36 12-Soul Man
DR15 -0.24 dB -17.33 dB 3:51 13-Everybody Needs Somebody to Love
DR18 -0.24 dB -20.52 dB 4:18 14-Green Onions
------

Number of tracks: 14
Official DR value: DR17

Samplerate: 44100 Hz
Channels: 2
Bits per sample: 16
Bitrate: 858 kbps
Codec: FLAC

The Blues Brothers Band - Live in Montreux (1990)

The Blues Brothers Band - Live in Montreux (1990)

All thanks to original releaser - pмх222




DOWNLOAD LINKS
Buy Premium From My Links To Get Resumable Support & Max Speed & To Support Me


Links are Interchangeable - No Password - Single Extraction
Direct Download

Tags: Brothers, Montreux

The Blues Brothers Band - Live in Montreux (1990) Download via Hotfile Rapidshare Fileserve Megaupload & FileSonic, The Blues Brothers Band - Live in Montreux (1990) free torrent downloads included crack, serial, keygen.The Blues Brothers Band - Live in Montreux (1990) Fast Download via Rapidshare Hotfile Fileserve Filesonic Megaupload, The Blues Brothers Band - Live in Montreux (1990) Torrents and Emule Download or anything related.
Leave a Comment
Your Name:
E-Mail:
Add Comments:

Enter Code: