Shocking Blue: Discography (1968-1984)

Download Now

Shocking Blue: Discography (1968-1984)

Shocking Blue: Discography (1968-1984)
EAC | Flac(Image) + Cue + Log & MP3 CBR 320Kbps
10CD | 2009, Recordsmen Communications | ~ 3172 or 1163 Mb | Scans(png) -> 1833 Mb
Classic Rock / Pop Rock / Psychedelic Rock

"Dutch rock group. Formed in 1967 by former Motions, The guitarist Robbie van Leeuwen, joined by Cor van der Beek (drums), Klaasje van der Wal (bass) and Fred de Wilde (vocals). Their first single hit the Dutch Top 40 in 1968. Shortly thereafter, Mariska Veres replaced de Wilde as their lead vocalist. In 1969 and 1970, the group enjoyed a worldwide chart success with "Venus", followed by several other hit singles..."

Shocking Blue: Discography (1968-1984)

Shocking Blue at Wiki | Shocking Blue at Discogs | Shocking Blue at Allmusic

***********
Shocking Blue: Discography (1968-1984):

Shocking Blue: Discography (1968-1984)

CD01: Shocking Blue - Shocking Blue (1968) Repost
EAC | Flac(Image) + Cue + Log & MP3 CBR 320Kbps
2009 | Recordsmen Comm., RCM 00102 2 | ~ 262 or 103 Mb | Scans(png) -> 105 Mb
Classic Rock / Pop Rock / Psychedelic Rock

"Shocking Blue is the debut studio album by the Dutch rock band Shocking Blue. It was released in 1968 on Polydor. In Germany, the record was released in 1970 under the title Beat With Us.


~ wiki
"


Tracklist:

01. Love Is In The Air 02:39
02. Ooh Wee There's Music In Me 02:35
03. What You Gonna Do 02:19
04. Whiskey Don't Wash My Brains 01:02
05. Little Maggie 02:50
06. Jail My Second Home 02:25
07. What's Wrong Bertha 02:27
08. League Of Angels 02:10
09. Rockin' Pneumonia And Boogie Woogie Flu 02:02
10. That's Allright 02:25
11. Crazy Drunken Man Dreams 02:53
12. Beggarman 02:33
13. Hold Me, Hug Me, Rock Me 02:03
14. Where My Baby's Gone 05:12

Bonus Tracks:
15. Lusy Brown Is Black In Town 02:55
16. Fix Your Hair Darling 02:18

Exact Audio Copy V1.0 beta 4 from 7. December 2014

EAC extraction logfile from 11. June 2015, 13:53

Shocking Blue / Shocking Blue

Used drive : SONY BD RW BDX-S600U Adapter: 1 ID: 2

Read mode : Secure
Utilize accurate stream : Yes
Defeat audio cache : Yes
Make use of C2 pointers : No

Read offset correction

: 48
Overread into Lead-In and Lead-Out : No
Fill up missing offset samples with silence : Yes
Delete leading and trailing silent blocks : No
Null samples used in CRC calculations : Yes
Used interface
: Native Win32 interface for Win NT & 2000

Used output format : User Defined Encoder
Selected bitrate : 768 kBit/s
Quality : High
Add ID3 tag : No
Command line compressor : C:\Program Files (x86)\Exact Audio Copy\FLAC\FLAC.EXE
Additional command line options : -6 -V -T "ARTIST=%artist%" -T "TITLE=%title%" -T "ALBUM=%albumtitle%" -T "DATE=%year%" -T "TRACKNUMBER=%tracknr%" -T "GENRE=%genre%" -T "COMMENT=%comment%" -T "BAND=%albuminterpret%" -T "ALBUMARTIST=%albuminterpret%" -T "COMPOSER=%composer%" %haslyrics%--tag-from-file=LYRICS="%lyricsfile%"%haslyrics% -T "DISCNUMBER=%cdnumber%" -T "TOTALDISCS=%totalcds%" -T "TOTALTRACKS=%numtracks%" %hascover%--picture="%coverfile%"%hascover% %source% -o %dest%

TOC of the extracted CD Track | Start | Length | Start sector | End sector
1 | 0:00.00 | 2:39.42 | 0 | 11966 2 | 2:39.42 | 2:35.40 | 11967 | 23631 3 | 5:15.07 | 2:19.23 | 23632 | 34079 4 | 7:34.30 | 1:02.11 | 34080 | 38740 5 | 8:36.41 | 2:50.63 | 38741 | 51553 6 | 11:27.29 | 2:25.32 | 51554 | 62460 7 | 13:52.61 | 2:27.17 | 62461 | 73502 8 | 16:20.03 | 2:10.50 | 73503 | 83302 9 | 18:30.53 | 2:02.57 | 83303 | 92509
10 | 20:33.35 | 2:25.49 | 92510 | 103433
11 | 22:59.09 | 2:53.71 | 103434 | 116479
12 | 25:53.05 | 2:33.47 | 116480 | 128001
13 | 28:26.52 | 2:03.25 | 128002 | 137251
14 | 30:30.02 | 5:12.36 | 137252 | 160687
15 | 35:42.38 | 2:55.00 | 160688 | 173812
16 | 38:37.38 | 2:18.47 | 173813 | 184209

Range status and errors

Selected range Filename D:\Shocking Blue Japan\1968. Shocking Blue - Shocking Blue (Polydor,Recordsmen Comm.,RCM 00102 2,Japan)\Shocking Blue - Shocking Blue.wav Peak level 100.0 %
Extraction speed 5.9 X
Range quality 99.9 %
Test CRC FF1E8176
Copy CRC FF1E8176
Copy OK

No errors occurred


AccurateRip summary

Track 1 cannot be verified as accurate (confidence 1) [71FA6926], AccurateRip returned [797595E2] (AR v2)
Track 2 cannot be verified as accurate (confidence 1) [8F3E301C], AccurateRip returned [94562E05] (AR v2)
Track 3 cannot be verified as accurate (confidence 1) [A3CC709F], AccurateRip returned 9C16422 (AR v2)
Track 4 cannot be verified as accurate (confidence 1) [2FF16F40], AccurateRip returned [DC67C8BD] (AR v2)
Track 5 cannot be verified as accurate (confidence 1) [A094824D], AccurateRip returned [3564802D] (AR v2)
Track 6 cannot be verified as accurate (confidence 1) [EFDF13EC], AccurateRip returned [650BFEF3] (AR v2)
Track 7 cannot be verified as accurate (confidence 1) [41D15037], AccurateRip returned [87F9C72E] (AR v2)
Track 8 cannot be verified as accurate (confidence 1) [D2089448], AccurateRip returned [854EB3C7] (AR v2)
Track 9 cannot be verified as accurate (confidence 1) [1703E219], AccurateRip returned [EC9C5834] (AR v2)
Track 10 cannot be verified as accurate (confidence 1) [29F42838], AccurateRip returned [8DC6BCEB] (AR v2)
Track 11 cannot be verified as accurate (confidence 1) ACFDBDC, AccurateRip returned [5F2F1023] (AR v2)
Track 12 cannot be verified as accurate (confidence 1) [0444963C], AccurateRip returned [5F13EE24] (AR v2)
Track 13 cannot be verified as accurate (confidence 1) [47F073AC], AccurateRip returned [DE0F0C4F] (AR v2)
Track 14 cannot be verified as accurate (confidence 1) [083508BA], AccurateRip returned [4B66F290] (AR v2)
Track 15 cannot be verified as accurate (confidence 1) [90D2159E], AccurateRip returned [93EC7A96] (AR v2)
Track 16 cannot be verified as accurate (confidence 1) [4C274CEA], AccurateRip returned [9BA73062] (AR v2)

No tracks could be verified as accurate
You may have a different pressing from the one(s) in the database

End of status report

---- CUETools DB Plugin V2.1.4

[CTDB TOCID: sQRney7344mgPXbyh9ACueoOazU-] found
Submit result: already submitted
Track | CTDB Status
1 | (1/1) Accurately ripped
2 | (1/1) Accurately ripped
3 | (1/1) Accurately ripped
4 | (1/1) Accurately ripped
5 | (1/1) Accurately ripped
6 | (1/1) Accurately ripped
7 | (1/1) Accurately ripped
8 | (1/1) Accurately ripped
9 | (1/1) Accurately ripped
10 | (1/1) Accurately ripped
11 | (1/1) Accurately ripped
12 | (1/1) Accurately ripped
13 | (1/1) Accurately ripped
14 | (1/1) Accurately ripped
15 | (1/1) Accurately ripped
16 | (1/1) Accurately ripped

==== Log checksum 9FFC4A2ADACB6408FD0FBAF4F210267FFA67A15D41E4640FD64D31C775C21E3D ====

foobar2000 1.2.9 / Dynamic Range Meter 1.1.1
log date: 2015-06-17 18:36:54

------
Analyzed: Shocking Blue / Shocking Blue
------

DR Peak RMS Duration Track
------
DR8 0.00 dB -9.82 dB 2:40 01-Love Is In The Air
DR9 0.00 dB -10.38 dB 2:36 02-Ooh Wee There's Music In Me
DR9 0.00 dB -9.76 dB 2:19 03-What You Gonna Do
DR8 -0.62 dB -12.09 dB 1:02 04-Whiskey Don't Wash My Brains
DR8 0.00 dB -9.55 dB 2:51 05-Little Maggie
DR8 0.00 dB -9.63 dB 2:25 06-Jail My Second Home
DR9 0.00 dB -10.19 dB 2:27 07-What's Wrong Bertha
DR9 -0.42 dB -11.44 dB 2:11 08-League Of Angels
DR9 0.00 dB -10.26 dB 2:03 09-Rockin' Pneumonia And Boogie Woogie Flu
DR9 0.00 dB -10.27 dB 2:26 10-That's Allright
DR9 0.00 dB -10.03 dB 2:54 11-Crazy Drunken Man Dreams
DR10 0.00 dB -10.89 dB 2:34 12-Beggarman
DR9 0.00 dB -10.91 dB 2:03 13-Hold Me, Hug Me, Rock Me
DR9 0.00 dB -10.11 dB 5:12 14-Where My Baby's Gone
DR11 -0.76 dB -12.31 dB 2:55 15-Lusy Brown Is Black In Town
DR11 -0.14 dB -12.32 dB 2:19 16-Fix Your Hair Darling
------

Number of tracks: 16
Official DR value: DR9

Samplerate: 44100 Hz
Channels: 2
Bits per sample: 16
Bitrate: 852 kbps
Codec: FLAC

[CUETools log; Date: 12.06.2015 22:15:14; Version: 2.1.4]
[CTDB TOCID: sQRney7344mgPXbyh9ACueoOazU-] found.
Track | CTDB Status
1 | (1/1) Accurately ripped
2 | (1/1) Accurately ripped
3 | (1/1) Accurately ripped
4 | (1/1) Accurately ripped
5 | (1/1) Accurately ripped
6 | (1/1) Accurately ripped
7 | (1/1) Accurately ripped
8 | (1/1) Accurately ripped
9 | (1/1) Accurately ripped
10 | (1/1) Accurately ripped
11 | (1/1) Accurately ripped
12 | (1/1) Accurately ripped
13 | (1/1) Accurately ripped
14 | (1/1) Accurately ripped
15 | (1/1) Accurately ripped
16 | (1/1) Accurately ripped
[AccurateRip ID: 0016842e-0110cce4-d0099810] found.
Track [ CRC | V2 ] Status
01 [91694d91|71fa6926] (0+0/1) No match
02 b0d19e3|8f3e301c (0+0/1) No match
03 [3c3df84a|a3cc709f] (0+0/1) No match
04 [defed8b1|2ff16f40] (0+0/1) No match
05 [aa0a2d1b|a094824d] (0+0/1) No match
06 [25ccc5dd|efdf13ec] (0+0/1) No match
07 [ffb1ed4e|41d15037] (0+0/1) No match
08 [2bce6de9|d2089448] (0+0/1) No match
09 [6c45532e|1703e219] (0+0/1) No match
10 [f63b8ef9|29f42838] (0+0/1) No match
11 [9c802b1d|bacfdbdc] (0+0/1) No match
12 [5633dd56|0444963c] (0+0/1) No match
13 [af92d8e7|47f073ac] (0+0/1) No match
14 [407b8fd4|083508ba] (0+0/1) No match
15 34833dc|90d2159e (0+0/1) No match
16 [d63d1e22|4c274cea] (0+0/1) No match
Offsetted by 6:
01 [797595e2] (1/1) Accurately ripped
02 [94562e05] (1/1) Accurately ripped
03 9c16422 (1/1) Accurately ripped
04 [dc67c8bd] (1/1) Accurately ripped
05 [3564802d] (1/1) Accurately ripped
06 [650bfef3] (1/1) Accurately ripped
07 [87f9c72e] (1/1) Accurately ripped
08 [854eb3c7] (1/1) Accurately ripped
09 [ec9c5834] (1/1) Accurately ripped
10 [8dc6bceb] (1/1) Accurately ripped
11 [5f2f1023] (1/1) Accurately ripped
12 [5f13ee24] (1/1) Accurately ripped
13 [de0f0c4f] (1/1) Accurately ripped
14 [4b66f290] (1/1) Accurately ripped
15 [93ec7a96] (1/1) Accurately ripped
16 [9ba73062] (1/1) Accurately ripped

Track Peak [ CRC32 ] [W/O NULL] [ LOG ]
-- 100,0 [FF1E8176] [49053631] CRC32
01 100,0 [FC2C3798] [876C87E0]
02 100,0 C445FB0 [8F86ABC5]
03 100,0 6525B89 [7BDF7989]
04 93,1 [DABE1832] [01C139F2]
05 100,0 [C281CAA7] [DB2222FD]
06 100,0 1963D51 [E0926B99]
07 100,0 [363F43C5] [058C218C]
08 95,3 [73B5BFF6] [F4DCBCAF]
09 100,0 [66DA5617] [7DAFD4F9]
10 100,0 [3305C6B2] 0B70649
11 100,0 [C452ABE1] [1807D4DE]
12 100,0 [35D67D30] [D97E28B9]
13 100,0 [065EDC80] [653E892E]
14 100,0 [1FFF11FF] [C6D8E78C]
15 91,6 CAA0A30 [3BA5755F]
16 98,4 912A0F3 [24E85C13]

* * * * *

Shocking Blue: Discography (1968-1984)

CD02: Shocking Blue - At Home (1969)
EAC | Flac(Image) + Cue + Log & MP3 CBR 320Kbps
2009 | Recordsmen Comm., RCM 00103 2 | ~ 345 or 138 Mb | Scans(png) -> 189 Mb
Classic Rock / Pop Rock / Psychedelic Rock

"American listeners tend to remember Shocking Blue as the one-hit wonder behind the chart-topper "Venus," a melting pot of rock rhythms, country guitar licks, organ riffs, and Mariska Veres' heavily accented vocals. Sounding something like a cross between "96 Tears" and "Sugar, Sugar," "Venus" was not entirely representative of the group's first album, At Home. Like their fellow countrymen Golden Earring, Shocking Blue purveyed a mild strain of psychedelic rock, but leaned more toward country and folk music than bubblegum. Guitarist and principal songwriter Robby Van Leeuwen was already preoccupied with Americana at this early stage, from "Harley Davidson" and "California Here I Come" to a surprising rendition of the folk song "Boll Weevil" that sets the traditional lyrics to music reminiscent of the Easybeats' "Good Times." (The group's country music fixation would manifest itself more overtly on later albums). Van Leeuwen's sitar is pictured on the album cover and dominates the instrumental "Acka Raga," but, thankfully, is not overused. "Mighty Joe" and "Never Marry a Railroad Man" were minor U.S. chart hits that few people remember, but "Love Buzz" gained a measure of fame decades later when Nirvana covered it. Veres has great presence -- like a gypsy incarnation of Grace Slick -- but Van Leeuwen's English-language lyrics can be awkward at times. On "Venus," all the components clicked perfectly into place, but there is much more to Shocking Blue than their biggest hit.


by Greg Adams, AMG
"


Tracklist:

01. Bool Weevil 02:42
02. I'll Write Your Name Through The Fire 02:57
03. Acka Ragh 03:09
04. Love Machine 03:20
05. I'm A Woman 03:02
06. California Here I Come 03:17
07. Poor Boy 04:51
08. Love Buzz 03:45
09. The Butterfly And I 04:09

Bonus Tracks:
10. Send Me A Postcard 02:40
11. Harley Davidson 02:40
12. Long And Lonesome Road 02:50
13. Fireball Of Love 03:01
14. Venus 03:01
15. Hot Sand 02:40
16. Mighty Joe 03:10
17. Wild Wind 02:13
18. Poor Boy (Long Version) 04:52

Exact Audio Copy V1.0 beta 4 from 7. December 2014

EAC extraction logfile from 10. June 2015, 13:50

Shocking Blue / At Home

Used drive : SONY BD RW BDX-S600U Adapter: 1 ID: 2

Read mode : Secure
Utilize accurate stream : Yes
Defeat audio cache : Yes
Make use of C2 pointers : No

Read offset correction

: 48
Overread into Lead-In and Lead-Out : No
Fill up missing offset samples with silence : Yes
Delete leading and trailing silent blocks : No
Null samples used in CRC calculations : Yes
Used interface
: Native Win32 interface for Win NT & 2000

Used output format : User Defined Encoder
Selected bitrate : 768 kBit/s
Quality : High
Add ID3 tag : No
Command line compressor : C:\Program Files (x86)\Exact Audio Copy\FLAC\FLAC.EXE
Additional command line options : -6 -V -T "ARTIST=%artist%" -T "TITLE=%title%" -T "ALBUM=%albumtitle%" -T "DATE=%year%" -T "TRACKNUMBER=%tracknr%" -T "GENRE=%genre%" -T "COMMENT=%comment%" -T "BAND=%albuminterpret%" -T "ALBUMARTIST=%albuminterpret%" -T "COMPOSER=%composer%" %haslyrics%--tag-from-file=LYRICS="%lyricsfile%"%haslyrics% -T "DISCNUMBER=%cdnumber%" -T "TOTALDISCS=%totalcds%" -T "TOTALTRACKS=%numtracks%" %hascover%--picture="%coverfile%"%hascover% %source% -o %dest%

TOC of the extracted CD Track | Start | Length | Start sector | End sector
1 | 0:00.00 | 2:42.07 | 0 | 12156 2 | 2:42.07 | 2:57.72 | 12157 | 25503 3 | 5:40.04 | 3:09.35 | 25504 | 39713 4 | 8:49.39 | 3:20.65 | 39714 | 54778 5 | 12:10.29 | 3:02.05 | 54779 | 68433 6 | 15:12.34 | 3:17.57 | 68434 | 83265 7 | 18:30.16 | 4:51.61 | 83266 | 105151 8 | 23:22.02 | 3:45.57 | 105152 | 122083 9 | 27:07.59 | 4:09.50 | 122084 | 140808
10 | 31:17.34 | 2:40.55 | 140809 | 152863
11 | 33:58.14 | 2:40.22 | 152864 | 164885
12 | 36:38.36 | 2:50.03 | 164886 | 177638
13 | 39:28.39 | 3:01.46 | 177639 | 191259
14 | 42:30.10 | 3:01.72 | 191260 | 204906
15 | 45:32.07 | 2:40.19 | 204907 | 216925
16 | 48:12.26 | 3:10.23 | 216926 | 231198
17 | 51:22.49 | 2:13.26 | 231199 | 241199
18 | 53:36.00 | 4:52.24 | 241200 | 263123

Range status and errors

Selected range Filename D:\Shocking Blue Japan\1969. Shocking Blue - At Home (Pink Elephant,Recordsmen Comm.,RCM 00103 2,Japan)\Shocking Blue - At Home.wav Peak level 98.8 %
Extraction speed 15.7 X
Range quality 100.0 %
Test CRC 80B33FC3
Copy CRC 80B33FC3
Copy OK

No errors occurred


AccurateRip summary

Track 1 not present in database
Track 2 not present in database
Track 3 not present in database
Track 4 not present in database
Track 5 not present in database
Track 6 not present in database
Track 7 not present in database
Track 8 not present in database
Track 9 not present in database
Track 10 not present in database
Track 11 not present in database
Track 12 not present in database
Track 13 not present in database
Track 14 not present in database
Track 15 not present in database
Track 16 not present in database
Track 17 not present in database
Track 18 not present in database

None of the tracks are present in the AccurateRip database

End of status report

---- CUETools DB Plugin V2.1.4

[CTDB TOCID: CLnkE3HaEzl16YJt6fV_aKZybgs-] found
Submit result: already submitted
Track | CTDB Status
1 | (1/1) Accurately ripped
2 | (1/1) Accurately ripped
3 | (1/1) Accurately ripped
4 | (1/1) Accurately ripped
5 | (1/1) Accurately ripped
6 | (1/1) Accurately ripped
7 | (1/1) Accurately ripped
8 | (1/1) Accurately ripped
9 | (1/1) Accurately ripped
10 | (1/1) Accurately ripped
11 | (1/1) Accurately ripped
12 | (1/1) Accurately ripped
13 | (1/1) Accurately ripped
14 | (1/1) Accurately ripped
15 | (1/1) Accurately ripped
16 | (1/1) Accurately ripped
17 | (1/1) Accurately ripped
18 | (1/1) Accurately ripped

==== Log checksum CFA3769F5D1D6326F69D5E4B4F7DFDB066CA61623EECBCF63BFD2B19E8AF09F4 ====

foobar2000 1.2.9 / Dynamic Range Meter 1.1.1
log date: 2015-06-22 14:39:06

------
Analyzed: Shocking Blue / At Home
------

DR Peak RMS Duration Track
------
DR8 -0.10 dB -10.02 dB 2:42 01-Bool Weevil
DR9 -0.10 dB -10.52 dB 2:58 02-I'll Write Your Name Through The Fire
DR10 -0.10 dB -12.19 dB 3:09 03-Acka Ragh
DR9 -0.10 dB -10.45 dB 3:21 04-Love Machine
DR9 -0.10 dB -11.20 dB 3:02 05-I'm A Woman
DR8 -0.10 dB -9.08 dB 3:18 06-California Here I Come
DR8 -0.10 dB -9.53 dB 4:52 07-Poor Boy
DR10 -0.10 dB -11.63 dB 3:46 08-Love Buzz
DR8 -0.10 dB -9.98 dB 4:10 09-The Butterfly And I
DR10 -0.14 dB -11.73 dB 2:41 10-Send Me A Postcard
DR10 -0.14 dB -11.54 dB 2:40 11-Harley Davidson
DR9 -0.93 dB -11.49 dB 2:50 12-Long And Lonesome Road
DR10 -0.14 dB -12.06 dB 3:02 13-Fireball Of Love
DR11 -0.14 dB -11.85 dB 3:02 14-Venus
DR11 -0.14 dB -12.17 dB 2:40 15-Hot Sand
DR10 -0.14 dB -11.52 dB 3:10 16-Mighty Joe
DR13 -0.14 dB -14.01 dB 2:13 17-Wild Wind
DR11 -1.75 dB -15.51 dB 4:52 18-Poor Boy (Long Version)
------

Number of tracks: 18
Official DR value: DR10

Samplerate: 44100 Hz
Channels: 2
Bits per sample: 16
Bitrate: 801 kbps
Codec: FLAC

[CUETools log; Date: 12.06.2015 22:16:06; Version: 2.1.4]
[CTDB TOCID: CLnkE3HaEzl16YJt6fV_aKZybgs-] found.
Track | CTDB Status
1 | (1/1) Accurately ripped
2 | (1/1) Accurately ripped
3 | (1/1) Accurately ripped
4 | (1/1) Accurately ripped
5 | (1/1) Accurately ripped
6 | (1/1) Accurately ripped
7 | (1/1) Accurately ripped
8 | (1/1) Accurately ripped
9 | (1/1) Accurately ripped
10 | (1/1) Accurately ripped
11 | (1/1) Accurately ripped
12 | (1/1) Accurately ripped
13 | (1/1) Accurately ripped
14 | (1/1) Accurately ripped
15 | (1/1) Accurately ripped
16 | (1/1) Accurately ripped
17 | (1/1) Accurately ripped
18 | (1/1) Accurately ripped
[AccurateRip ID: 002615a0-01fcb25d-da0db412] disk not present in database.

Track Peak [ CRC32 ] [W/O NULL] [ LOG ]
-- 98,8 [80B33FC3] [C7E56205] CRC32
01 98,8 5FB57CD [5F4B1E86]
02 98,8 [514CA6DA] [1B4A81D6]
03 98,8 [AE320033] [15F8F557]
04 98,8 [F2086369] [CF284FC8]
05 98,8 [E6EDB66B] [D8935F1E]
06 98,8 [73940B12] [E1FB738A]
07 98,8 [CAAE0C3A] [99972D4F]
08 98,8 EF438F8 [E7AE1796]
09 98,8 [398E9675] [7F0FD7E0]
10 98,4 [A670F3F3] [FAD9083A]
11 98,4 [5E32EDC4] [2C3F92F9]
12 89,8 [4882B624] [8A39D006]
13 98,4 [141D7B39] [7F26CFA0]
14 98,4 [03C7FB85] [5124838D]
15 98,4 [09D9EB97] [2DAEABB7]
16 98,4 [F10055E5] [A93842A2]
17 98,4 [C589D276] [E1DC5F0F]
18 81,7 [3F79EBA0] [20CE8118]

* * * * *

Shocking Blue: Discography (1968-1984)

CD03: Shocking Blue - Scorpion's Dance (1970)
EAC | Flac(Image) + Cue + Log & MP3 CBR 320Kbps
2009 | Recordsmen Comm., RCM 00104 2 | ~ 334 or 126 Mb | Scans(png) -> 220 Mb
Classic Rock / Pop Rock / Psychedelic Rock

"Shocking Blue's second album was partly recorded in New York and continues the band's exploration of Americana and country music, although its style is firmly rooted in rock. "Alaska Country" is one of the most obvious references to America, but "Sally Was a Good Old Girl" is a cover of an early-'60s country hit by songwriter Hank Cochran; Shocking Blue's rendition chugs along in a rock groove that reveals the source of its material with a touch of banjo. As always, the focal point is the inimitable voice of Mariska Veres, but songwriter/guitarist Robby VanLeeuwen shows no sign of a sophomore slump. There isn't an obvious hit single candidate like the previous album's "Venus," but Scorpio's Dance makes up for it with solid consistency. "Daemon Lover" is moody and mesmerizing, and the title track is a spaghetti western soundtrack in search of a film (the cover photo, appropriately enough, was shot in a cactus field). "I Love Voodoo Music" is colored with bongos and jungle sound effects, while "Water Boy" sees the return of VanLeeuwen's sitar. It's a diverse collection of songs that reveals the group's artistic growth but, in America at least, saw no chart action.


by Greg Adams, AMG
"


Tracklist:

01. Scorpio's Dance(First Movement) 00:38
02. Alaska County 03:52
03. Sally Was a Good Old Girl 03:29
04. Daemon Lover 06:04
05. Scorpio's Dance (Instrumental) 03:44
06. Little Cooling Planet 04:05
07. I Love Voodoo Music 04:02
08. Seven Is a Number in Magic 02:59
09. Keep It If You Want It 02:55
10. Water Boy 02:38

Bonus Tracks:
11. Never Marry A Railroad Man 03:06
12. Roll Engine Roll 03:19
13. Hello Darkness 02:56
14. Pickin' Tomatoes 03:22
15. Keep It If You Want It(German Single Version) 02:54
16. Sally Was a Good Old Girl(UK Single Version) 03:26

Exact Audio Copy V1.0 beta 4 from 7. December 2014

EAC extraction logfile from 11. June 2015, 1:36

Shocking Blue / Scorpion's Dance

Used drive : SONY BD RW BDX-S600U Adapter: 1 ID: 2

Read mode : Secure
Utilize accurate stream : Yes
Defeat audio cache : Yes
Make use of C2 pointers : No

Read offset correction

: 48
Overread into Lead-In and Lead-Out : No
Fill up missing offset samples with silence : Yes
Delete leading and trailing silent blocks : No
Null samples used in CRC calculations : Yes
Used interface
: Native Win32 interface for Win NT & 2000

Used output format : User Defined Encoder
Selected bitrate : 768 kBit/s
Quality : High
Add ID3 tag : No
Command line compressor : C:\Program Files (x86)\Exact Audio Copy\FLAC\FLAC.EXE
Additional command line options : -6 -V -T "ARTIST=%artist%" -T "TITLE=%title%" -T "ALBUM=%albumtitle%" -T "DATE=%year%" -T "TRACKNUMBER=%tracknr%" -T "GENRE=%genre%" -T "COMMENT=%comment%" -T "BAND=%albuminterpret%" -T "ALBUMARTIST=%albuminterpret%" -T "COMPOSER=%composer%" %haslyrics%--tag-from-file=LYRICS="%lyricsfile%"%haslyrics% -T "DISCNUMBER=%cdnumber%" -T "TOTALDISCS=%totalcds%" -T "TOTALTRACKS=%numtracks%" %hascover%--picture="%coverfile%"%hascover% %source% -o %dest%

TOC of the extracted CD Track | Start | Length | Start sector | End sector
1 | 0:00.00 | 0:38.64 | 0 | 2913 2 | 0:38.64 | 3:52.74 | 2914 | 20387 3 | 4:31.63 | 3:29.24 | 20388 | 36086 4 | 8:01.12 | 6:04.57 | 36087 | 63443 5 | 14:05.69 | 3:44.28 | 63444 | 80271 6 | 17:50.22 | 4:05.09 | 80272 | 98655 7 | 21:55.31 | 4:02.56 | 98656 | 116861 8 | 25:58.12 | 2:59.58 | 116862 | 130344 9 | 28:57.70 | 2:55.34 | 130345 | 143503
10 | 31:53.29 | 2:38.70 | 143504 | 155423
11 | 34:32.24 | 3:06.70 | 155424 | 169443
12 | 37:39.19 | 3:19.03 | 169444 | 184371
13 | 40:58.22 | 2:56.48 | 184372 | 197619
14 | 43:54.70 | 3:22.28 | 197620 | 212797
15 | 47:17.23 | 2:54.67 | 212798 | 225914
16 | 50:12.15 | 3:26.13 | 225915 | 241377

Range status and errors

Selected range Filename D:\Shocking Blue Japan\1970. Shocking Blue - Scorpion's Dance (Pink Elephant,Recordsmen Comm.,RCM 00104 2,Japan)\Shocking Blue - Scorpion's Dance.wav Peak level 100.0 %
Extraction speed 6.3 X
Range quality 100.0 %
Test CRC D4A0A89B
Copy CRC D4A0A89B
Copy OK

No errors occurred


AccurateRip summary

Track 1 cannot be verified as accurate (confidence 1) [ED073BC7], AccurateRip returned [CC4FD93E] (AR v2)
Track 2 cannot be verified as accurate (confidence 1) [528248D7], AccurateRip returned 55DD1F2 (AR v2)
Track 3 cannot be verified as accurate (confidence 1) [E10D5BBA], AccurateRip returned [C7505E21] (AR v2)
Track 4 cannot be verified as accurate (confidence 1) [17361862], AccurateRip returned [E0BC6C68] (AR v2)
Track 5 cannot be verified as accurate (confidence 1) [46386BD1], AccurateRip returned [EA366005] (AR v2)
Track 6 cannot be verified as accurate (confidence 1) [4CDAA7CB], AccurateRip returned [38902B30] (AR v2)
Track 7 cannot be verified as accurate (confidence 1) [14432147], AccurateRip returned [7E2896F0] (AR v2)
Track 8 cannot be verified as accurate (confidence 1) [9D190E28], AccurateRip returned [C97F366C] (AR v2)
Track 9 cannot be verified as accurate (confidence 1) [4C83FF8B], AccurateRip returned A52992B (AR v2)
Track 10 cannot be verified as accurate (confidence 1) [E98C4EBF], AccurateRip returned [0CA6BCD2] (AR v2)
Track 11 cannot be verified as accurate (confidence 1) 7980F79, AccurateRip returned [A029E4C8] (AR v2)
Track 12 cannot be verified as accurate (confidence 1) [CAF4B78E], AccurateRip returned [7AE8C2F5] (AR v2)
Track 13 cannot be verified as accurate (confidence 1) [6DE82C8F], AccurateRip returned [9389DF08] (AR v2)
Track 14 cannot be verified as accurate (confidence 1) D2AD051, AccurateRip returned [F1FEDFF3] (AR v2)
Track 15 cannot be verified as accurate (confidence 1) [4D0B54D5], AccurateRip returned [71087A14] (AR v2)
Track 16 cannot be verified as accurate (confidence 1) [44411797], AccurateRip returned [90C11299] (AR v2)

No tracks could be verified as accurate
You may have a different pressing from the one(s) in the database

End of status report

---- CUETools DB Plugin V2.1.4

[CTDB TOCID: 6FZohcWPSCRZdTTr8aU20joVAqs-] found
Submit result: already submitted
Track | CTDB Status
1 | (1/1) Accurately ripped
2 | (1/1) Accurately ripped
3 | (1/1) Accurately ripped
4 | (1/1) Accurately ripped
5 | (1/1) Accurately ripped
6 | (1/1) Accurately ripped
7 | (1/1) Accurately ripped
8 | (1/1) Accurately ripped
9 | (1/1) Accurately ripped
10 | (1/1) Accurately ripped
11 | (1/1) Accurately ripped
12 | (1/1) Accurately ripped
13 | (1/1) Accurately ripped
14 | (1/1) Accurately ripped
15 | (1/1) Accurately ripped
16 | (1/1) Accurately ripped

==== Log checksum 5F29F5239351B8B2A4271A9965B1FCE9FCC1A8EA9AA64BDCB7D40040ECD4826B ====

foobar2000 1.2.9 / Dynamic Range Meter 1.1.1
log date: 2015-06-22 14:39:22

------
Analyzed: Shocking Blue / Scorpion's Dance
------

DR Peak RMS Duration Track
------
DR11 -3.08 dB -19.29 dB 0:39 01-Scorpio's Dance(First Movement)
DR9 -2.22 dB -12.84 dB 3:53 02-Alaska County
DR11 -2.53 dB -14.49 dB 3:29 03-Sally Was a Good Old Girl
DR10 -2.07 dB -14.51 dB 6:05 04-Daemon Lover
DR11 -2.52 dB -15.51 dB 3:44 05-Scorpio's Dance (Instrumental)
DR10 -0.33 dB -12.83 dB 4:05 06-Little Cooling Planet
DR12 -1.04 dB -15.60 dB 4:03 07-I Love Voodoo Music
DR9 -2.43 dB -13.18 dB 3:00 08-Seven Is a Number in Magic
DR10 -1.66 dB -13.59 dB 2:55 09-Keep It If You Want It
DR11 -1.55 dB -14.39 dB 2:39 10-Water Boy
DR10 -0.23 dB -11.94 dB 3:07 11-Never Marry A Railroad Man
DR10 -0.14 dB -12.06 dB 3:19 12-Roll Engine Roll
DR11 0.00 dB -12.13 dB 2:57 13-Hello Darkness
DR10 -0.79 dB -12.89 dB 3:22 14-Pickin' Tomatoes
DR8 -1.40 dB -10.87 dB 2:55 15-Keep It If You Want It(German Single Version)
DR9 -1.40 dB -11.49 dB 3:26 16-Sally Was a Good Old Girl(UK Single Version)
------

Number of tracks: 16
Official DR value: DR10

Samplerate: 44100 Hz
Channels: 2
Bits per sample: 16
Bitrate: 844 kbps
Codec: FLAC

[CUETools log; Date: 12.06.2015 22:16:59; Version: 2.1.4]
[CTDB TOCID: 6FZohcWPSCRZdTTr8aU20joVAqs-] found.
Track | CTDB Status
1 | (1/1) Accurately ripped
2 | (1/1) Accurately ripped
3 | (1/1) Accurately ripped
4 | (1/1) Accurately ripped
5 | (1/1) Accurately ripped
6 | (1/1) Accurately ripped
7 | (1/1) Accurately ripped
8 | (1/1) Accurately ripped
9 | (1/1) Accurately ripped
10 | (1/1) Accurately ripped
11 | (1/1) Accurately ripped
12 | (1/1) Accurately ripped
13 | (1/1) Accurately ripped
14 | (1/1) Accurately ripped
15 | (1/1) Accurately ripped
16 | (1/1) Accurately ripped
[AccurateRip ID: 001fbabf-017e6412-cd0c9210] found.
Track [ CRC | V2 ] Status
01 [26afaaea|ed073bc7] (0+0/2) No match
02 [9760480b|528248d7] (0+0/2) No match
03 [ca1e9f47|e10d5bba] (0+0/2) No match
04 8df68d7|17361862 (0+0/2) No match
05 [2568726e|46386bd1] (0+0/2) No match
06 [9bf4be45|4cdaa7cb] (0+0/2) No match
07 [eae799e0|14432147] (0+0/2) No match
08 [029ff595|9d190e28] (0+0/2) No match
09 [65fc1164|4c83ff8b] (0+0/2) No match
10 [ac6573e0|e98c4ebf] (0+0/2) No match
11 [e794ee78|b7980f79] (0+0/2) No match
12 [a8a832e4|caf4b78e] (0+0/2) No match
13 [c95277cf|6de82c8f] (0+0/2) No match
14 [980a977a|bd2ad051] (0+0/2) No match
15 [763446a1|4d0b54d5] (0+0/2) No match
16 [1a60f7ac|44411797] (0+0/2) No match
Offsetted by 6:
01 [062b89f0] (1/2) Accurately ripped
02 [fc14427f] (1/2) Accurately ripped
03 207b0e9 (1/2) Accurately ripped
04 [835fb877] (1/2) Accurately ripped
05 [c9646981] (1/2) Accurately ripped
06 [89985df4] (1/2) Accurately ripped
07 [56b6920f] (1/2) Accurately ripped
08 [306fba29] (1/2) Accurately ripped
09 [d52e1e7b] (1/2) Accurately ripped
10 [d0b5b26e] (1/2) Accurately ripped
11 [d1961b50] (1/2) Accurately ripped
12 [5a25eb20] (1/2) Accurately ripped
13 [f04e6f97] (1/2) Accurately ripped
14 [ce7327ca] (1/2) Accurately ripped
15 [9b8e187f] (1/2) Accurately ripped
16 [a135176f] (0/2) No match (V2 was not tested)

Track Peak [ CRC32 ] [W/O NULL] [ LOG ]
-- 100,0 [D4A0A89B] [92717821] CRC32
01 70,1 [02F28BE2] [3BCE01B7]
02 77,4 0A307FC [100C73E6]
03 74,7 [4F9BEE4A] [A4E7A7FD]
04 78,8 [8933D9D5] [19A97790]
05 74,8 [999ACFDB] [91B96F74]
06 96,3 [0F1BC9D4] [17D82ACC]
07 88,6 [C64ACE15] [29FBFB17]
08 75,6 [3A74CD58] 53C89DD
09 82,6 [CE76660E] [050C5039]
10 83,6 [80817E9A] [ED2DF4BF]
11 97,4 [0C6D3B39] [C4CB0EE1]
12 98,4 [1A6153A5] [77E93BB3]
13 100,0 [875396D0] [E3FD4294]
14 91,2 [D5F73F96] [1FA986EE]
15 85,1 [FFF45628] [13CE8958]
16 85,1 [4A8901E7] [FFF89770]

* * * * *

Shocking Blue: Discography (1968-1984)

CD04: Shocking Blue - 3rd Album (1971)
EAC | Flac(Image) + Cue + Log & MP3 CBR 320Kbps
2009 | Recordsmen Comm., RCM 00105 2 | ~ 298 or 113 Mb | Scans(png) -> 220 Mb
Classic Rock / Pop Rock / Psychedelic Rock

"If you should give a description of the sound of Shocking Blue I think you could say that it lies somewhere between the early Easybeats and Jefferson Airplane. You might add that it has elements of folk music and it's generally very catchy and melodic.

"Third Album", which in fact is their fourth if you count in the early "Beat With Us" album, is probably their most consistent and with great bonus-tracks it could be right album to play for the non initiated.

The album contains three of their greatest singles - two of them were not on the original album. "Never Marry a Railroad Man" is simply great - in the same league as their big internatioinal hit "Venus". "Shocking You" is both heavy and catchy - and a great opener. On "Blossom Lady" the groups expands their sound with horns, which actually works fine.

The album has a string of varied and melodic tracks, spanning from folk through the blues till heavy Kinks/Easybeats sound - lead by guitarist and songwriter Robbie van Leeuwen.

"Velvet Heaven" is quiet waltzy ballad, like the vast majority of their songs beautifully sung by Mariska Veres. Veres' vocals often sound a lot like Grace Slick of the Jefferson Airplane.

On "Serenade" both melody and sound make me think of the Danish group Savage Rose - beautiful melodic organ line. "I'll Follow the Sun" has great driving guitarline, and it's overall a beautiful, optimistic, upbeat song.

There are also a handful of great melodic rockers, among which "Bird of Paradise" and "I Saw Your Face" stand out.

Among the bonus-tracks B-sides you'll find the great dramatic ballad "Waterloo" , which I truly believe could have been another hit-record. "Roll Engine Roll is a fine bluesy thing which backed the single "Never Marry a Railroad Man".


By Morten Vindberg, amazon
"


Tracklist:

01. Shocking You 03:01
02. Velvet Heaven 03:27
03. Love Sweet Love 03:15
04. I Saw Your Face 03:00
05. Simon Lee And The Gang 01:52
06. A Serenade 03:29
07. Don't You See 02:46
08. The Bird Of Paradise 02:51
09. Moonlight Night 04:59
10. Sleepless Of Midnight 02:33
11. I Follow The Sun 02:49

Bonus Tracks:
12. Shocking You (Single Version) 03:02
13. Waterloo 03:27
14. Blossom Lady 03:36
15. Is This A Dream 03:46

Exact Audio Copy V1.0 beta 4 from 7. December 2014

EAC extraction logfile from 12. June 2015, 1:18

Shocking Blue / 3-d Album

Used drive : SONY BD RW BDX-S600U Adapter: 1 ID: 2

Read mode : Secure
Utilize accurate stream : Yes
Defeat audio cache : Yes
Make use of C2 pointers : No

Read offset correction

: 48
Overread into Lead-In and Lead-Out : No
Fill up missing offset samples with silence : Yes
Delete leading and trailing silent blocks : No
Null samples used in CRC calculations : Yes
Used interface
: Native Win32 interface for Win NT & 2000

Used output format : User Defined Encoder
Selected bitrate : 768 kBit/s
Quality : High
Add ID3 tag : No
Command line compressor : C:\Program Files (x86)\Exact Audio Copy\FLAC\FLAC.EXE
Additional command line options : -6 -V -T "ARTIST=%artist%" -T "TITLE=%title%" -T "ALBUM=%albumtitle%" -T "DATE=%year%" -T "TRACKNUMBER=%tracknr%" -T "GENRE=%genre%" -T "COMMENT=%comment%" -T "BAND=%albuminterpret%" -T "ALBUMARTIST=%albuminterpret%" -T "COMPOSER=%composer%" %haslyrics%--tag-from-file=LYRICS="%lyricsfile%"%haslyrics% -T "DISCNUMBER=%cdnumber%" -T "TOTALDISCS=%totalcds%" -T "TOTALTRACKS=%numtracks%" %hascover%--picture="%coverfile%"%hascover% %source% -o %dest%

TOC of the extracted CD Track | Start | Length | Start sector | End sector
1 | 0:00.00 | 3:01.27 | 0 | 13601 2 | 3:01.27 | 3:27.34 | 13602 | 29160 3 | 6:28.61 | 3:15.62 | 29161 | 43847 4 | 9:44.48 | 3:00.26 | 43848 | 57373 5 | 12:44.74 | 1:52.51 | 57374 | 65824 6 | 14:37.50 | 3:29.59 | 65825 | 81558 7 | 18:07.34 | 2:46.42 | 81559 | 94050 8 | 20:54.01 | 2:51.55 | 94051 | 106930 9 | 23:45.56 | 4:59.40 | 106931 | 129395
10 | 28:45.21 | 2:33.23 | 129396 | 140893
11 | 31:18.44 | 2:49.35 | 140894 | 153603
12 | 34:08.04 | 3:02.20 | 153604 | 167273
13 | 37:10.24 | 3:27.08 | 167274 | 182806
14 | 40:37.32 | 3:36.28 | 182807 | 199034
15 | 44:13.60 | 3:46.39 | 199035 | 216023

Range status and errors

Selected range Filename D:\Shocking Blue Japan\1971. Shocking Blue - 3-d Album (Pink Elephant,Recordsmen Comm.,RCM 00105 2,Japan)\Shocking Blue - 3-d Album.wav Peak level 98.4 %
Extraction speed 6.1 X
Range quality 100.0 %
Test CRC B5947F1B
Copy CRC B5947F1B
Copy OK

No errors occurred


AccurateRip summary

Track 1 cannot be verified as accurate (confidence 1) 41E351B, AccurateRip returned [E168FA97] (AR v2)
Track 2 cannot be verified as accurate (confidence 1) [C30511CE], AccurateRip returned [0F92A3AE] (AR v2)
Track 3 cannot be verified as accurate (confidence 1) [173EB095], AccurateRip returned [A93B2D73] (AR v2)
Track 4 cannot be verified as accurate (confidence 1) [CB70C14D], AccurateRip returned [95CD8AA7] (AR v2)
Track 5 cannot be verified as accurate (confidence 1) [61E28329], AccurateRip returned [5AE4357B] (AR v2)
Track 6 cannot be verified as accurate (confidence 1) [A746173F], AccurateRip returned [6FB02447] (AR v2)
Track 7 cannot be verified as accurate (confidence 1) [8026EEC4], AccurateRip returned [A4738531] (AR v2)
Track 8 cannot be verified as accurate (confidence 1) [37076A34], AccurateRip returned [AEC159DF] (AR v2)
Track 9 cannot be verified as accurate (confidence 1) [4E3D1680], AccurateRip returned EB5E54B (AR v2)
Track 10 cannot be verified as accurate (confidence 1) [E3EF5778], AccurateRip returned [7D0D07FC] (AR v2)
Track 11 cannot be verified as accurate (confidence 1) [D4A41476], AccurateRip returned [6F189B2C] (AR v2)
Track 12 cannot be verified as accurate (confidence 1) [91761CEE], AccurateRip returned [0147CCAE] (AR v2)
Track 13 cannot be verified as accurate (confidence 1) [28A31485], AccurateRip returned [C548A5C2] (AR v2)
Track 14 cannot be verified as accurate (confidence 1) [67ED58C0], AccurateRip returned [3D53D6A4] (AR v2)
Track 15 cannot be verified as accurate (confidence 1) [43B81396], AccurateRip returned [473E94A8] (AR v2)

No tracks could be verified as accurate
You may have a different pressing from the one(s) in the database

End of status report

---- CUETools DB Plugin V2.1.4

[CTDB TOCID: e4jhRqjBrjuuNCI5WdsisecOqKI-] found
Submit result: already submitted
Track | CTDB Status
1 | (1/1) Accurately ripped
2 | (1/1) Accurately ripped
3 | (1/1) Accurately ripped
4 | (1/1) Accurately ripped
5 | (1/1) Accurately ripped
6 | (1/1) Accurately ripped
7 | (1/1) Accurately ripped
8 | (1/1) Accurately ripped
9 | (1/1) Accurately ripped
10 | (1/1) Accurately ripped
11 | (1/1) Accurately ripped
12 | (1/1) Accurately ripped
13 | (1/1) Accurately ripped
14 | (1/1) Accurately ripped
15 | (1/1) Accurately ripped

==== Log checksum C7CBD8EFD81156CA86FA05918919D191F5038C69DFB89E91F0CB31E31E92F776 ====

foobar2000 1.2.9 / Dynamic Range Meter 1.1.1
log date: 2015-06-22 14:39:43

------
Analyzed: Shocking Blue / 3-d Album
------

DR Peak RMS Duration Track
------
DR12 -1.14 dB -14.03 dB 3:01 01-Shocking You
DR12 -1.14 dB -16.97 dB 3:27 02-Velvet Heaven
DR12 -1.79 dB -16.34 dB 3:16 03-Love Sweet Love
DR12 -1.12 dB -14.93 dB 3:00 04-I Saw Your Face
DR12 -1.76 dB -17.33 dB 1:53 05-Simon Lee And The Gang
DR12 -1.12 dB -14.96 dB 3:30 06-A Serenade
DR12 -1.12 dB -17.11 dB 2:47 07-Don't You See
DR12 -1.12 dB -14.91 dB 2:52 08-The Bird Of Paradise
DR12 -1.12 dB -14.97 dB 5:00 09-Moonlight Night
DR12 -1.12 dB -15.61 dB 2:33 10-Sleepless Of Midnight
DR12 -1.12 dB -14.70 dB 2:49 11-I Follow The Sun
DR10 -0.14 dB -11.18 dB 3:02 12-Shocking You (Single Version)
DR10 -0.14 dB -12.00 dB 3:27 13-Waterloo
DR10 -0.19 dB -12.47 dB 3:36 14-Blossom Lady
DR11 -0.14 dB -13.40 dB 3:47 15-Is This A Dream
------

Number of tracks: 15
Official DR value: DR12

Samplerate: 44100 Hz
Channels: 2
Bits per sample: 16
Bitrate: 843 kbps
Codec: FLAC

[CUETools log; Date: 12.06.2015 22:17:45; Version: 2.1.4]
[CTDB TOCID: e4jhRqjBrjuuNCI5WdsisecOqKI-] found.
Track | CTDB Status
1 | (1/1) Accurately ripped
2 | (1/1) Accurately ripped
3 | (1/1) Accurately ripped
4 | (1/1) Accurately ripped
5 | (1/1) Accurately ripped
6 | (1/1) Accurately ripped
7 | (1/1) Accurately ripped
8 | (1/1) Accurately ripped
9 | (1/1) Accurately ripped
10 | (1/1) Accurately ripped
11 | (1/1) Accurately ripped
12 | (1/1) Accurately ripped
13 | (1/1) Accurately ripped
14 | (1/1) Accurately ripped
15 | (1/1) Accurately ripped
[AccurateRip ID: 0019a7e9-0123c11b-dc0b400f] found.
Track [ CRC | V2 ] Status
01 [e648657d|b41e351b] (0+0/1) No match
02 [c6ac0768|c30511ce] (0+0/1) No match
03 [d429bb43|173eb095] (0+0/1) No match
04 [3c45c13b|cb70c14d] (0+0/1) No match
05 [096aa03b|61e28329] (0+0/1) No match
06 [a442fbf5|a746173f] (0+0/1) No match
07 [01d983e9|8026eec4] (0+0/1) No match
08 [9092603f|37076a34] (0+0/1) No match
09 [673c8975|4e3d1680] (0+0/1) No match
10 [47a76bce|e3ef5778] (0+0/1) No match
11 [a512d730|d4a41476] (0+0/1) No match
12 [8443882a|91761cee] (0+0/1) No match
13 [9288ecce|28a31485] (0+0/1) No match
14 [13e3d352|67ed58c0] (0+0/1) No match
15 [273b6a8a|43b81396] (0+0/1) No match
Offsetted by 6:
01 [e168fa97] (1/1) Accurately ripped
02 [0f92a3ae] (1/1) Accurately ripped
03 [a93b2d73] (1/1) Accurately ripped
04 [95cd8aa7] (1/1) Accurately ripped
05 [5ae4357b] (1/1) Accurately ripped
06 [6fb02447] (1/1) Accurately ripped
07 [a4738531] (1/1) Accurately ripped
08 [aec159df] (1/1) Accurately ripped
09 eb5e54b (1/1) Accurately ripped
10 [7d0d07fc] (1/1) Accurately ripped
11 [6f189b2c] (1/1) Accurately ripped
12 [0147ccae] (1/1) Accurately ripped
13 [c548a5c2] (1/1) Accurately ripped
14 [3d53d6a4] (1/1) Accurately ripped
15 [473e94a8] (1/1) Accurately ripped

Track Peak [ CRC32 ] [W/O NULL] [ LOG ]
-- 98,4 5947F1B [2213064C] CRC32
01 87,6 [2E5EDB0A] CDA8F71
02 87,6 [00B90D97] [FDECFB9E]
03 81,3 [FF438A81] [0E45B878]
04 87,9 08E3F24 [CE683FC9]
05 81,6 [10FE0F7A] [6B3A2DF5]
06 87,9 [F2CA3B1A] [8F4D040F]
07 87,9 [65FFA478] [D4E92C96]
08 87,9 [8DF4541F] [374A80AB]
09 87,9 [3AE0229A] [0657374E]
10 87,9 150D0BC [D8F963EC]
11 87,9 [348018A2] [F8A73173]
12 98,4 [25099A38] [ADC0C8E4]
13 98,4 [55EB11E9] [F83C1039]
14 97,8 [37921609] [97168905]
15 98,4 [9AA1465D] 7C0814D

* * * * *

Shocking Blue: Discography (1968-1984)

CD05: Shocking Blue - Inkpot (1972) Repost
EAC | Flac(Image) + Cue + Log & MP3 CBR 320Kbps
2009 | Recordsmen Comm., RCM 00108 2 | ~ 257 or 86 Mb | Scans(png) -> 178 Mb
Classic Rock / Pop Rock / Psychedelic Rock

"Inkpot is the fifth album by Shocking Blue, released in 1972.

The similarly titled song in the album is perhaps best known to people in Hong Kong as the longtime theme music of televised Mark Six lottery drawings.

The American and Dutch versions have different tracks than one another.

Three tracks on the album are cover songs. This can be related to the fact Robbie van Leeuwen was the main composer, and was running out of material after almost solely writing three albums in two years.


~ wiki
"


Tracklist:

01. I Ain't Never 02:17
02. Navajo Tears 02:38
03. Shadows 02:30
04. Blue Jean 02:36
05. Jambalaya 02:28
06. Inkpot 02:39
07. Tobacco Road 02:33
08. Hey 02:30
09. Who Save My Soul 01:57
10. Red Leaves I+II 02:38
11. The Queen 02:05
12. I Melt Like Butter 02:12

Bonus Tracks:
13. Out Of Sight, Out Of Mind 02:46
14. I Like You 02:12
15. Give My Love To The Sunrise 02:25

Exact Audio Copy V1.0 beta 4 from 7. December 2014

EAC extraction logfile from 9. June 2015, 14:14

Shocking Blue / Inkpot

Used drive : SONY BD RW BDX-S600U Adapter: 1 ID: 2

Read mode : Secure
Utilize accurate stream : Yes
Defeat audio cache : Yes
Make use of C2 pointers : No

Read offset correction

: 48
Overread into Lead-In and Lead-Out : No
Fill up missing offset samples with silence : Yes
Delete leading and trailing silent blocks : No
Null samples used in CRC calculations : Yes
Used interface
: Native Win32 interface for Win NT & 2000

Used output format : User Defined Encoder
Selected bitrate : 768 kBit/s
Quality : High
Add ID3 tag : No
Command line compressor : C:\Program Files (x86)\Exact Audio Copy\FLAC\FLAC.EXE
Additional command line options : -6 -V -T "ARTIST=%artist%" -T "TITLE=%title%" -T "ALBUM=%albumtitle%" -T "DATE=%year%" -T "TRACKNUMBER=%tracknr%" -T "GENRE=%genre%" -T "COMMENT=%comment%" -T "BAND=%albuminterpret%" -T "ALBUMARTIST=%albuminterpret%" -T "COMPOSER=%composer%" %haslyrics%--tag-from-file=LYRICS="%lyricsfile%"%haslyrics% -T "DISCNUMBER=%cdnumber%" -T "TOTALDISCS=%totalcds%" -T "TOTALTRACKS=%numtracks%" %hascover%--picture="%coverfile%"%hascover% %source% -o %dest%

TOC of the extracted CD Track | Start | Length | Start sector | End sector
1 | 0:00.00 | 2:17.04 | 0 | 10278 2 | 2:17.04 | 2:38.62 | 10279 | 22190 3 | 4:55.66 | 2:30.09 | 22191 | 33449 4 | 7:26.00 | 2:36.02 | 33450 | 45151 5 | 10:02.02 | 2:28.19 | 45152 | 56270 6 | 12:30.21 | 2:39.52 | 56271 | 68247 7 | 15:09.73 | 2:33.68 | 68248 | 79790 8 | 17:43.66 | 2:30.26 | 79791 | 91066 9 | 20:14.17 | 1:57.39 | 91067 | 99880
10 | 22:11.56 | 2:38.18 | 99881 | 111748
11 | 24:49.74 | 2:05.29 | 111749 | 121152
12 | 26:55.28 | 2:12.47 | 121153 | 131099
13 | 29:08.00 | 2:46.55 | 131100 | 143604
14 | 31:54.55 | 2:12.26 | 143605 | 153530
15 | 34:07.06 | 2:25.18 | 153531 | 164423

Range status and errors

Selected range Filename D:\Shocking Blue Japan\1972. Shocking Blue - Inkpot (Pink Elephant,Recordsmen Comm.,RCM 00108 2,Japan)\Shocking Blue - Inkpot.wav Peak level 98.4 %
Extraction speed 5.8 X
Range quality 100.0 %
Test CRC 2C716A42
Copy CRC 2C716A42
Copy OK

No errors occurred


AccurateRip summary

Track 1 cannot be verified as accurate (confidence 2) [79A9B59E], AccurateRip returned [792D29DA] (AR v2)
Track 2 cannot be verified as accurate (confidence 2) [70434576], AccurateRip returned [1C0691B1] (AR v2)
Track 3 cannot be verified as accurate (confidence 2) [73FB3B4E], AccurateRip returned [679D99FD] (AR v2)
Track 4 cannot be verified as accurate (confidence 2) [9399CFB1], AccurateRip returned [CEB4AD90] (AR v2)
Track 5 cannot be verified as accurate (confidence 2) [4B671DD1], AccurateRip returned [4A51E5AB] (AR v2)
Track 6 cannot be verified as accurate (confidence 2) [8393B663], AccurateRip returned [F580DD57] (AR v2)
Track 7 cannot be verified as accurate (confidence 2) [C4DC12E3], AccurateRip returned [68D00056] (AR v2)
Track 8 cannot be verified as accurate (confidence 2) [22EAF2B7], AccurateRip returned 3463509 (AR v2)
Track 9 cannot be verified as accurate (confidence 2) [43BE3457], AccurateRip returned [8CF156B8] (AR v2)
Track 10 cannot be verified as accurate (confidence 2) [A41C1383], AccurateRip returned [5AA63D18] (AR v2)
Track 11 cannot be verified as accurate (confidence 2) [09FDBE72], AccurateRip returned [DD92907C] (AR v2)
Track 12 cannot be verified as accurate (confidence 2) [1DD998EF], AccurateRip returned [D3AC4BD5] (AR v2)
Track 13 cannot be verified as accurate (confidence 2) [41F4001B], AccurateRip returned [D49925A8] (AR v2)
Track 14 cannot be verified as accurate (confidence 2) [F41025AF], AccurateRip returned [1EFF5887] (AR v2)
Track 15 cannot be verified as accurate (confidence 2) [C304086A], AccurateRip returned [5B04B836] (AR v2)

No tracks could be verified as accurate
You may have a different pressing from the one(s) in the database

End of status report

---- CUETools DB Plugin V2.1.4

[CTDB TOCID: zj2fmfP68Mgnu4d_zhJN.RbYzF4-] found
Submit result: zj2fmfP68Mgnu4d_zhJN.RbYzF4- has been confirmed
Track | CTDB Status
1 | (1/1) Accurately ripped
2 | (1/1) Accurately ripped
3 | (1/1) Accurately ripped
4 | (1/1) Accurately ripped
5 | (1/1) Accurately ripped
6 | (1/1) Accurately ripped
7 | (1/1) Accurately ripped
8 | (1/1) Accurately ripped
9 | (1/1) Accurately ripped
10 | (1/1) Accurately ripped
11 | (1/1) Accurately ripped
12 | (1/1) Accurately ripped
13 | (1/1) Accurately ripped
14 | (1/1) Accurately ripped
15 | (1/1) Accurately ripped

==== Log checksum EBA3A5760EBFBA75D704D634C1FCF150508CC9B8C84106B06BA6237D0735C8F0 ====

foobar2000 1.2.9 / Dynamic Range Meter 1.1.1
log date: 2015-06-22 14:40:01

------
Analyzed: Shocking Blue / Inkpot
------

DR Peak RMS Duration Track
------
DR10 -0.14 dB -11.22 dB 2:17 01-I Ain`t Never
DR11 -0.14 dB -12.37 dB 2:39 02-Navajo Tears
DR11 -0.14 dB -13.98 dB 2:30 03-Shadows
DR11 -0.14 dB -12.77 dB 2:36 04-Blue Jean
DR12 -0.14 dB -13.72 dB 2:28 05-Jambalaya
DR11 -0.14 dB -12.47 dB 2:40 06-Inkpot
DR10 -0.14 dB -12.40 dB 2:34 07-Tobacco Road
DR12 -0.14 dB -13.00 dB 2:30 08-Hey
DR10 -0.14 dB -11.09 dB 1:58 09-Who Save My Soul
DR10 -0.14 dB -12.47 dB 2:38 10-Red Leaves I+II
DR11 -0.14 dB -12.14 dB 2:05 11-The Queen
DR11 -0.14 dB -13.36 dB 2:13 12-I Melt Like Butter
DR11 -0.14 dB -13.19 dB 2:47 13-Out Of Sight, Out Of Mind (Bonus)
DR10 -0.64 dB -13.92 dB 2:12 14-I Like You (Bonus)
DR10 -0.57 dB -13.50 dB 2:25 15-Give My Love To The Sunrise (Bonus)
------

Number of tracks: 15
Official DR value: DR11

Samplerate: 44100 Hz
Channels: 2
Bits per sample: 16
Bitrate: 912 kbps
Codec: FLAC

[CUETools log; Date: 12.06.2015 22:20:05; Version: 2.1.4]
[CTDB TOCID: zj2fmfP68Mgnu4d_zhJN.RbYzF4-] found.
Track | CTDB Status
1 | (2/2) Accurately ripped
2 | (2/2) Accurately ripped
3 | (2/2) Accurately ripped
4 | (2/2) Accurately ripped
5 | (2/2) Accurately ripped
6 | (2/2) Accurately ripped
7 | (2/2) Accurately ripped
8 | (2/2) Accurately ripped
9 | (2/2) Accurately ripped
10 | (2/2) Accurately ripped
11 | (2/2) Accurately ripped
12 | (2/2) Accurately ripped
13 | (2/2) Accurately ripped
14 | (2/2) Accurately ripped
15 | (2/2) Accurately ripped
[AccurateRip ID: 001452b4-00e5a695-bf08900f] found.
Track [ CRC | V2 ] Status
01 [8cbf56e6|79a9b59e] (0+0/2) No match
02 [ef97caf1|70434576] (0+0/2) No match
03 [9fb84bcd|73fb3b4e] (0+0/2) No match
04 [6a4e8e86|9399cfb1] (0+0/2) No match
05 [f25a9af9|4b671dd1] (0+0/2) No match
06 [50c795f9|8393b663] (0+0/2) No match
07 [f7eb83e4|c4dc12e3] (0+0/2) No match
08 [eb1583af|22eaf2b7] (0+0/2) No match
09 [cc659df8|43be3457] (0+0/2) No match
10 [3575ee1c|a41c1383] (0+0/2) No match
11 [d52e4f2c|09fdbe72] (0+0/2) No match
12 [cc841255|1dd998ef] (0+0/2) No match
13 [273aa390|41f4001b] (0+0/2) No match
14 [662003bd|f41025af] (0+0/2) No match
15 [4fb9e539|c304086a] (0+0/2) No match
Offsetted by 54:
01 [792d29da] (2/2) Accurately ripped
02 [1c0691b1] (2/2) Accurately ripped
03 [679d99fd] (2/2) Accurately ripped
04 [ceb4ad90] (2/2) Accurately ripped
05 [4a51e5ab] (2/2) Accurately ripped
06 [f580dd57] (2/2) Accurately ripped
07 [68d00056] (2/2) Accurately ripped
08 3463509 (2/2) Accurately ripped
09 [8cf156b8] (2/2) Accurately ripped
10 [5aa63d18] (2/2) Accurately ripped
11 [dd92907c] (2/2) Accurately ripped
12 [d3ac4bd5] (2/2) Accurately ripped
13 [d49925a8] (2/2) Accurately ripped
14 [1eff5887] (2/2) Accurately ripped
15 [5b04b836] (2/2) Accurately ripped

Track Peak [ CRC32 ] [W/O NULL] [ LOG ]
-- 98,4 [2C716A42] [57D198DF] CRC32
01 98,4 [980C092A] [36C8B61C]
02 98,4 [312AE1B3] [022AB569]
03 98,4 [AB0BFAB5] [35CF430A]
04 98,4 [E1558CB3] [387D8331]
05 98,4 [FF357610] [652F6404]
06 98,4 [A45AFBDC] 2E3EEAF
07 98,4 [51C10D10] [1527C305]
08 98,4 [E0CD95C7] [A37683E7]
09 98,4 [E9AAFA74] E391C56
10 98,4 [0A7
Direct Download

Tags: Shocking, Discography

Shocking Blue: Discography (1968-1984) Download via Hotfile Rapidshare Fileserve Megaupload & FileSonic, Shocking Blue: Discography (1968-1984) free torrent downloads included crack, serial, keygen.Shocking Blue: Discography (1968-1984) Fast Download via Rapidshare Hotfile Fileserve Filesonic Megaupload, Shocking Blue: Discography (1968-1984) Torrents and Emule Download or anything related.
Leave a Comment
Your Name:
E-Mail:
Add Comments:

Enter Code: