Alireza Ghorbani - Éperdument... Chants d'Amour Persans (2015) {Accords Croisés}

Download Now


Alireza Ghorbani - Éperdument... Chants d'Amour Persans (2015) {Accords Croisés}
Alireza Ghorbani - Éperdument... Chants d'Amour Persans (2015) {Accords Croisés}
EAC rip (secure mode) | FLAC (tracks)+CUE+LOG -> 353 Mb | MP3 @320 -> 142 Mb
Full Artwork @ 300 dpi (png) -> 175 Mb | 5% repair rar
© 2015 Accords Croisés / Harmonia Mundi | AC 160
World Music / Ethnic Music / Persian / Vocal

"In recent years Alireza Ghorbani has established himself as on of the new generation's masters of Persian song. This recognition has come about as much by the range of his repertoire, accuracy and naturalness of voice as it has by his impeccable taste and uncompromising approach. With him, the musical tradition has been revitalised, renewed, transcended. Firstly by his real musical creativity in interpreting new compositions inspired by contemporary poets. Then in the technical and stylistic contribution he brings in to play on the evolution of the musical tradition. Virtuosity, ornamentation, invention, the ability to improvise on the poetic texts may be qualities common to several current Iranian artists, but what remains remarkable about Ghorbani is the conjunction of all these perfections in a single singer."

Alireza Ghorbani - Éperdument... Chants d'Amour Persans (2015) {Accords Croisés}

"Trained to recite the Qur'an as he was being brought up, Alireza Ghorbani developed his vocal abilities at a young age, going on to master the numerous scales of Middle Eastern music. For a few years now he has been releasing some of the most innovative recordings of Persian music, while always fully respecting the authentic traditions. Until now he has interpreted the lyrics of classical poets such as Khayyam and Rumi, but for this album Ghorbani and his musical collaborator Saman Samini, who plays the kamancheh (spiked fiddle), have added some poetry from the 20th and 21st centuries. Ghorbani's singing has a wide range of notes and moods - whether whispering a subdued, mystical sotto voce or bursting out into an exalted improvisation in tahrir, the rapturous ‘yodeling' of classical Persian singing. Ghorbani always exhibits a full control of technique even when seemingly letting himself go.

Sometimes, the African rhythms and timbres trickle through that have pervaded Iran for centuries via its south coast, through the slave trade and other connections. ‘Afarinesh' seems to go through all the varieties in tone colours and range of emotions that Ghorbani and ensemble could possibly be capable of. The last piece of the album, ‘Afshari', ends in an ecstatic frenzy of Afro-Gulf percussion. It's unlikely that any listener will have ever heard this style exploited so explicitly on an Iranian classical music album."


Alireza Ghorbani - Éperdument... Chants d'Amour Persans (2015) {Accords Croisés}


Personnel:
Alireza GHORBANI (Chant)
Saman SAMIMI (Compositeur, Kamantche)
Mehdi AMINI (Tar)
Mesbaah GHASMARI (Arrangeur, Udu)
Zakaria YUSEFI (Cajon, Daff [tambour sur cadre])
Saba SAMIMI (Tombak, Zarb)

Alireza Ghorbani - Éperdument... Chants d'Amour Persans (2015) {Accords Croisés}


tracklist:
01. Deldar (5:12)
02. Monajaat (7:58)
03. Monajaat (Suite) (2:44)
04. Aah-e-Shabbaneh (6:46)
05. Afarinesh (Introduction) (4:33)
06. Afarinesh (8:17)
07. Bidad (10:10)
08. Tanhaa (6:01)
09. Afshari (8:24)

Exact Audio Copy V1.0 beta 6 from 9. April 2015

EAC extraction logfile from 3. June 2015, 14:25

Alireza Ghorbani / Eperdument...

Used drive : ATAPI iHBS112 2 Adapter: 1 ID: 0

Read mode : Secure
Utilize accurate stream : Yes
Defeat audio cache : Yes
Make use of C2 pointers : No

Read offset correction

: 6
Overread into Lead-In and Lead-Out : No
Fill up missing offset samples with silence : Yes
Delete leading and trailing silent blocks : No
Null samples used in CRC calculations : Yes
Used interface
: Native Win32 interface for Win NT & 2000
Gap handling
: Appended to previous track

Used output format : User Defined Encoder
Selected bitrate : 1024 kBit/s
Quality : High
Add ID3 tag : No
Command line compressor : C:\Program Files\Exact Audio Copy\Flac\flac.exe
Additional command line options : -8 -V -T "ARTIST=%artist%" -T "TITLE=%title%" -T "ALBUM=%albumtitle%" -T "DATE=%year%" -T "TRACKNUMBER=%tracknr%" -T "TOTALTRACKS=%numtracks%" -T "GENRE=%genre%" -T "ALBUMARTIST=%albumartist%" -T "ALBUM ARTIST=%albumartist%" -T "COMPOSER=%composer%" -T "PERFORMER=%albuminterpret%" -T "DISCNUMBER=%cdnumber%" -T "TOTALDISCS=%totalcds%" -T "COMMENT=EAC Secure Mode, Test & Copy, AccurateRip, FLAC -8" %source%

TOC of the extracted CD Track | Start | Length | Start sector | End sector
1 | 0:00.00 | 5:12.64 | 0 | 23463 2 | 5:12.64 | 7:58.07 | 23464 | 59320 3 | 13:10.71 | 2:44.46 | 59321 | 71666 4 | 15:55.42 | 6:46.11 | 71667 | 102127 5 | 22:41.53 | 4:33.16 | 102128 | 122618 6 | 27:14.69 | 8:17.68 | 122619 | 159961 7 | 35:32.62 | 10:10.09 | 159962 | 205720 8 | 45:42.71 | 6:01.58 | 205721 | 232853 9 | 51:44.54 | 8:24.63 | 232854 | 270716

Track 1 Filename P:\DL\Alireza Ghorbani - Eperdument... (2014) [FLAC]\01 - Deldar.wav Pre-gap length 0:00:02.00 Peak level 100.0 %
Extraction speed 5.3 X
Track quality 100.0 %
Test CRC 87BA58A3
Copy CRC 87BA58A3
Track not present in AccurateRip database
Copy OK

Track 2 Filename P:\DL\Alireza Ghorbani - Eperdument... (2014) [FLAC]\02 - Monajaat.wav Pre-gap length 0:00:01.64 Peak level 100.0 %
Extraction speed 5.9 X
Track quality 99.9 %
Test CRC E6553CBC
Copy CRC E6553CBC
Track not present in AccurateRip database
Copy OK

Track 3 Filename P:\DL\Alireza Ghorbani - Eperdument... (2014) [FLAC]\03 - Monajaat (suite).wav Peak level 100.0 %
Extraction speed 6.2 X
Track quality 100.0 %
Test CRC 88AE2E47
Copy CRC 88AE2E47
Track not present in AccurateRip database
Copy OK

Track 4 Filename P:\DL\Alireza Ghorbani - Eperdument... (2014) [FLAC]\04 - Aah-e Shabaaneh.wav Pre-gap length 0:00:03.24 Peak level 100.0 %
Extraction speed 7.4 X
Track quality 100.0 %
Test CRC F02464DA
Copy CRC F02464DA
Track not present in AccurateRip database
Copy OK

Track 5 Filename P:\DL\Alireza Ghorbani - Eperdument... (2014) [FLAC]\05 - Afarinesh (introduction).wav Pre-gap length 0:00:04.04 Peak level 98.9 %
Extraction speed 6.5 X
Track quality 99.9 %
Test CRC 63546E80
Copy CRC 63546E80
Track not present in AccurateRip database
Copy OK

Track 6 Filename P:\DL\Alireza Ghorbani - Eperdument... (2014) [FLAC]\06 - Afarinesh.wav Peak level 99.6 %
Extraction speed 8.6 X
Track quality 100.0 %
Test CRC 8C589DF9
Copy CRC 8C589DF9
Track not present in AccurateRip database
Copy OK

Track 7 Filename P:\DL\Alireza Ghorbani - Eperdument... (2014) [FLAC]\07 - Bidad.wav Pre-gap length 0:00:04.42 Peak level 100.0 %
Extraction speed 9.4 X
Track quality 100.0 %
Test CRC DE219415
Copy CRC DE219415
Track not present in AccurateRip database
Copy OK

Track 8 Filename P:\DL\Alireza Ghorbani - Eperdument... (2014) [FLAC]\08 - Tanhaa.wav Pre-gap length 0:00:03.77 Peak level 99.8 %
Extraction speed 9.1 X
Track quality 100.0 %
Test CRC E19EB1EB
Copy CRC E19EB1EB
Track not present in AccurateRip database
Copy OK

Track 9 Filename P:\DL\Alireza Ghorbani - Eperdument... (2014) [FLAC]\09 - Afshari.wav Pre-gap length 0:00:03.64 Peak level 100.0 %
Extraction speed 9.9 X
Track quality 100.0 %
Test CRC B2A7718B
Copy CRC B2A7718B
Track not present in AccurateRip database
Copy OK

None of the tracks are present in the AccurateRip database

No errors occurred

End of status report

---- CUETools DB Plugin V2.1.6

[CTDB TOCID: v.f53sogsVAIJCnmuAA17.YhYN4-] found
Submit result:
Track | CTDB Status
1 | (1/1) Accurately ripped
2 | (1/1) Accurately ripped
3 | (1/1) Accurately ripped
4 | (1/1) Accurately ripped
5 | (1/1) Accurately ripped
6 | (1/1) Accurately ripped
7 | (1/1) Accurately ripped
8 | (1/1) Accurately ripped
9 | (1/1) Accurately ripped

==== Log checksum 28CFE34078885173D0F82432C490BC5060F7232827BE9E9542E24B6716C15490 ====

Alireza Ghorbani - Éperdument... Chants d'Amour Persans (2015) {Accords Croisés}

Alireza Ghorbani - Éperdument... Chants d'Amour Persans (2015) {Accords Croisés}


thanks to dtromp...
DOWNLOAD LINKS
Buy Premium From My Links To Get Resumable Support & Max Speed & To Support Me


Links are Interchangeable - No Password - Single Extraction
Direct Download

Tags: Alireza, Ghorbani, perdument, Chants, Persans, Accords

Alireza Ghorbani - Éperdument... Chants d'Amour Persans (2015) {Accords Croisés} Download via Hotfile Rapidshare Fileserve Megaupload & FileSonic, Alireza Ghorbani - Éperdument... Chants d'Amour Persans (2015) {Accords Croisés} free torrent downloads included crack, serial, keygen.Alireza Ghorbani - Éperdument... Chants d'Amour Persans (2015) {Accords Croisés} Fast Download via Rapidshare Hotfile Fileserve Filesonic Megaupload, Alireza Ghorbani - Éperdument... Chants d'Amour Persans (2015) {Accords Croisés} Torrents and Emule Download or anything related.
Leave a Comment
Your Name:
E-Mail:
Add Comments:

Enter Code: