Hiram Bullock - World Of Collision (1994) {Big World}

Download Now

Hiram Bullock - World Of Collision (1994) {Big World}

Hiram Bullock - World Of Collision (1994) {Big World}
EAC 1.0b3 | FLAC Image level 8 | Cue+Log | Full Scans 200dpi | 342MB + 5% Recovery
Genre: Fusion, Jazz-Funk, Blues Rock

"A longtime fixture of the New York City session circuit, guitarist Hiram Bullock proved himself equally adept in spheres spanning from rock & roll to jazz to the avant-garde. He also cut a series of solo LPs exploring funk and fusion, but perhaps remains best remembered as a founding member of the original Late Night with David Letterman house band."

Track List
01. Sooner Or Later (5:37)
02. One Size Fits All (4:51)
03. Mustang Sally (5:27)
04. Change (4:15)
05. Gonna Walk (5:14)
06. Devil May Care (5:07)
07. Son Of Creeper (6:03)
08. Spanish Castle Magic (4:24)
09. Gimp (4:35)
10. World Of Collision (3:28)
11. Leeza (6:01)

musicians
Hiram Bullock - guitar, keyboards, lead and background vocals
Will Lee - bass, finger snaps, shaker, synthesizer, tambourine, lead and background vocals
Charley Drayton - drums, pedal steel, lead and background vocals
Tom "Bones" Malone - tenor and baritone saxes, trombone, trumpet
Lew Soloff - trumpet
Sugar Blue - harp

Produced by Hiram Bullock, Will Lee and Charley Drayton

Exact Audio Copy V1.0 beta 3 from 29. August 2011

Отчёт EAC об извлечении, выполненном 16. февраля 2014, 9:01

Hiram Bullock / World Of Collision

Дисковод: hp DVD-RAM UJ8D1 Adapter: 0 ID: 0

Режим чтения : Достоверность
Использование точного потока : Да
Отключение кэша аудио : Да
Использование указателей C2 : Нет

Коррекция смещения при чтении : 6
Способность читать области Lead-in и Lead-out : Нет
Заполнение пропущенных сэмплов тишиной : Да
Удаление блоков с тишиной в начале и конце : Нет
При вычислениях CRC использовались нулевые сэмплы : Да
Интерфейс : Встроенный Win32-интерфейс для Win NT/2000

Выходной формат : Пользовательский кодировщик
Выбранный битрейт : 128 kBit/s
Качество : Высокий
Добавление ID3-тега : Нет
Утилита сжатия : C:\Program Files (x86)\Exact Audio Copy\Flac\flac.exe
Дополнительные параметры : -V -8 -T "Date=%year%" -T "Genre=%genre%" %source%

TOC извлечённого CD Трек | Старт | Длительность | Начальный сектор | Конечный сектор

1 | 0:00.00 | 5:37.45 | 0 | 25319
2 | 5:37.45 | 4:51.51 | 25320 | 47195
3 | 10:29.21 | 5:27.37 | 47196 | 71757
4 | 15:56.58 | 4:15.15 | 71758 | 90897
5 | 20:11.73 | 5:14.42 | 90898 | 114489
6 | 25:26.40 | 5:07.33 | 114490 | 137547
7 | 30:33.73 | 6:03.01 | 137548 | 164773
8 | 36:36.74 | 4:24.57 | 164774 | 184630
9 | 41:01.56 | 4:35.16 | 184631 | 205271
10 | 45:36.72 | 3:28.27 | 205272 | 220898
11 | 49:05.24 | 6:01.61 | 220899 | 248034

Характеристики диапазона извлечения и сообщения об ошибках

Выбранный диапазон Имя файла C:\Users\Desktop\Hiram Bullock - World Of Collision (1994)\Hiram Bullock - World Of Collision.wav Пиковый уровень 100.0 %
Скорость извлечения 4.8 X
Качество диапазона 100.0 %
CRC теста 8E8F02C0
CRC копии 8E8F02C0
Копирование... OK

Ошибок не произошло

Конец отчёта

---- CUETools DB Plugin V2.1.3

[CTDB TOCID: UYe.SM0JNHlVOhNCjdhHUotqs0g-] disk not present in database, Submit result: UYe.SM0JNHlVOhNCjdhHUotqs0g- has been uploaded

==== Контрольная сумма отчёта 395A5B07417EE1AB47B7C626FCFCC2586BB29DD2F6579643242D0E8AD974701F ====

------
Analyzed: Hiram Bullock / World Of Collision
------

DR Peak RMS Duration Track
------
DR12 -0.10 dB -14.06 dB 5:38 01-Sooner Or Later
DR13 0.00 dB -15.03 dB 4:52 02-One Size Fits All
DR15 -0.17 dB -16.68 dB 5:27 03-Mustang Sally
DR13 -1.13 dB -17.11 dB 4:15 04-Change
DR12 -0.25 dB -14.13 dB 5:15 05-Gonna Walk
DR13 -0.37 dB -16.56 dB 5:07 06-Devil May Care
DR14 -0.46 dB -17.44 dB 6:03 07-Son Of Creeper
DR12 -0.22 dB -14.99 dB 4:25 08-Spanish Castle Magic
DR14 -0.18 dB -15.79 dB 4:35 09-Gimp
DR13 0.00 dB -16.52 dB 3:28 10-World Of Collision
DR13 -0.75 dB -16.51 dB 6:02 11-Leeza
------

Number of tracks: 11
Official DR value: DR13

Samplerate: 44100 Hz
Channels: 2
Bits per sample: 16
Bitrate: 862 kbps
Codec: FLAC

Hiram Bullock - World Of Collision (1994) {Big World}

Hiram Bullock - World Of Collision (1994) {Big World}

Hiram Bullock - World Of Collision (1994) {Big World}



DOWNLOAD LINKS
Buy Premium From My Links To Get Resumable Support & Max Speed & To Support Me


Links are Interchangeable - No Password - Single Extraction
Direct Download

Tags: Bullock, Collision

Hiram Bullock - World Of Collision (1994) {Big World} Download via Hotfile Rapidshare Fileserve Megaupload & FileSonic, Hiram Bullock - World Of Collision (1994) {Big World} free torrent downloads included crack, serial, keygen.Hiram Bullock - World Of Collision (1994) {Big World} Fast Download via Rapidshare Hotfile Fileserve Filesonic Megaupload, Hiram Bullock - World Of Collision (1994) {Big World} Torrents and Emule Download or anything related.
Leave a Comment
Your Name:
E-Mail:
Add Comments:

Enter Code: