Jimmy Witherspoon - Blues For Easy Livers (1966) [Remastered 1996]

Download Now

Jimmy Witherspoon - Blues For Easy Livers (1966) [Remastered 1996]

Jimmy Witherspoon - Blues For Easy Livers (1966) Remastered 1996
EAC | FLAC | Image (Cue&Log) ~ 254 Mb (incl 5%) | Mp3 (CBR320) ~ 126 Mb (incl 5%) | Scans included
Genre: Jazz Blues, Jump Blues | Label: Prestige/Bluesville | # 00025218058520 | Time: 00:38:37

"Despite the title, this actually leans considerably further to the jazz side of Witherspoon's muse than the blues one, with backing by Pepper Adams on baritone sax, Roger Kellaway on piano, Bill Watrous on trombone, Richard Davis on bass, and Mel Lewis on drums. The songs, too, are much more in the jazz/pop vein than the blues/jazz one, heavy on standards by the likes of Johnny Mercer, the Gershwins, and Ellington. Witherspoon's one of the masters of closing-time bluesy jazz, and he doesn't let anyone down on that account on this relaxed (but not sleepy) session."



Tracklist:

01. Lotus Blossom (03:03)
02. Gee Baby, Ain't I Good To You? (03:11)
03. Trav'lin' Light (04:15)
04. P.S. I Love You (03:04)
05. I'll Always Be In Love With You (02:29)
06. Don't Worry 'Bout Me (03:02)
07. Easy Living (03:24)
08. Embraceable You (03:08)
09. Blues In The Night (04:04)
10. Trouble In Mind (02:23)
11. How Long Will It Take To Be A Man (03:16)
12. I Got It Bad (And That Ain't Good) (03:13)


Exact Audio Copy V0.99 prebeta 5 from 4. May 2009

EAC extraction logfile from 21. November 2009, 13:40

Jimmy Witherspoon / Blues For Easy Livers

Used drive : PLEXTOR CD-R PX-230A Adapter: 1 ID: 1

Read mode : Secure
Utilize accurate stream : Yes
Defeat audio cache : Yes
Make use of C2 pointers : No

Read offset correction

: 738
Overread into Lead-In and Lead-Out : No
Fill up missing offset samples with silence : Yes
Delete leading and trailing silent blocks : No
Null samples used in CRC calculations : Yes
Used interface
: Installed external ASPI interface

Used output format : User Defined Encoder
Selected bitrate : 1024 kBit/s
Quality : High
Add ID3 tag : No
Command line compressor : C:\Program Files\Exact Audio Copy\FLAC\FLAC.EXE
Additional command line options : -6 -V -T "ARTIST=%a" -T "TITLE=%t" -T "ALBUM=%g" -T "DATE=%y" -T "TRACKNUMBER=%n" -T "GENRE=%m" -T "COMMENT=%e" %s -o %d

TOC of the extracted CD Track | Start | Length | Start sector | End sector
1 | 0:00.00 | 3:03.68 | 0 | 13792 2 | 3:03.68 | 3:11.00 | 13793 | 28117 3 | 6:14.68 | 4:15.17 | 28118 | 47259 4 | 10:30.10 | 3:04.00 | 47260 | 61059 5 | 13:34.10 | 2:29.20 | 61060 | 72254 6 | 16:03.30 | 3:02.18 | 72255 | 85922 7 | 19:05.48 | 3:24.62 | 85923 | 101284 8 | 22:30.35 | 3:08.50 | 101285 | 115434 9 | 25:39.10 | 4:04.35 | 115435 | 133769
10 | 29:43.45 | 2:23.73 | 133770 | 144567
11 | 32:07.43 | 3:16.00 | 144568 | 159267
12 | 35:23.43 | 3:13.25 | 159268 | 173767

Range status and errors

Selected range Filename J:\Rips\Jimmy Witherspoon - Blues For Easy Livers.wav Peak level 100.0 %
Range quality 100.0 %
Test CRC 85AC4D85
Copy CRC 85AC4D85
Copy OK

No errors occurred


AccurateRip summary

Track 1 not present in database
Track 2 not present in database
Track 3 not present in database
Track 4 not present in database
Track 5 not present in database
Track 6 not present in database
Track 7 not present in database
Track 8 not present in database
Track 9 not present in database
Track 10 not present in database
Track 11 not present in database
Track 12 not present in database

None of the tracks are present in the AccurateRip database

End of status report

[CUETools log; Date: 25.06.2015 17:22:48; Version: 2.1.4]
[CTDB TOCID: rbvVKOOsnNrUQhWLQM5Paem3NLI-] found.
Track | CTDB Status
1 | (2/2) Accurately ripped
2 | (2/2) Accurately ripped
3 | (2/2) Accurately ripped
4 | (2/2) Accurately ripped
5 | (2/2) Accurately ripped
6 | (2/2) Accurately ripped
7 | (2/2) Accurately ripped
8 | (2/2) Accurately ripped
9 | (2/2) Accurately ripped
10 | (2/2) Accurately ripped
11 | (2/2) Accurately ripped
12 | (2/2) Accurately ripped
[AccurateRip ID: 00115777-00a191c7-a5090c0c] found.
Track [ CRC | V2 ] Status
01 [61ad9a5a|4ce9bfc9] (2+0/2) Accurately ripped
02 [e12a7f7b|33e16b96] (2+0/2) Accurately ripped
03 b4a1f69|e60c1d6c (2+0/2) Accurately ripped
04 [ee78f27f|71186f70] (2+0/2) Accurately ripped
05 [ea23f254|fb93521e] (2+0/2) Accurately ripped
06 [65ca5cac|c786a5a5] (2+0/2) Accurately ripped
07 [0b1046f6|7d94f8e9] (2+0/2) Accurately ripped
08 [6d102f23|e3b4df1a] (2+0/2) Accurately ripped
09 [3c409edb|531fc195] (2+0/2) Accurately ripped
10 [d476731e|1b6624ec] (2+0/2) Accurately ripped
11 [ab415971|b300b1b0] (2+0/2) Accurately ripped
12 [0f52cf8c|a3350ccc] (2+0/2) Accurately ripped
Offsetted by 664:
01 c1ec0e2 (0/2) No match (V2 was not tested)
02 [5c731d73] (0/2) No match (V2 was not tested)
03 [6d7bde89] (0/2) No match (V2 was not tested)
04 [897c8c8f] (0/2) No match (V2 was not tested)
05 [fc98814c] (0/2) No match (V2 was not tested)
06 [7b11af38] (0/2) No match (V2 was not tested)
07 [93084b52] (0/2) No match (V2 was not tested)
08 [22366253] (0/2) No match (V2 was not tested)
09 [e7e54173] (0/2) No match (V2 was not tested)
10 [f67338be] (0/2) No match (V2 was not tested)
11 [634fe371] (0/2) No match (V2 was not tested)
12 [ca2c714c] (0/2) No match (V2 was not tested)

Track Peak [ CRC32 ] [W/O NULL] [ LOG ]
-- 100,0 [85AC4D85] [FE2055DE] CRC32
01 100,0 [D73B6EC8] [4C5C9F8E]
02 100,0 [C60942B1] [EEC363B6]
03 99,9 3C4CE74 [F8230F3B]
04 99,5 [7EF2451A] [7EDF1231]
05 100,0 [98E17488] [C44071B8]
06 99,8 [84535607] [F648C4CA]
07 100,0 [20A040B4] 5735A43
08 87,6 [382D40C9] [54FC7124]
09 100,0 971A48C [A432A707]
10 99,9 99D7DE1 [96BEF469]
11 100,0 [35A188EA] [F4EC9CDD]
12 99,9 [24F8E993] [9D78D547]

foobar2000 1.2 / Dynamic Range Meter 1.1.1
log date: 2015-06-25 15:46:44

------
Analyzed: Jimmy Witherspoon / Blues For Easy Livers
------

DR Peak RMS Duration Track
------
DR11 0.00 dB -13.05 dB 3:04 01-Lotus Blossom
DR11 0.00 dB -14.70 dB 3:11 02-Gee Baby, Ain't I Good To You?
DR11 0.00 dB -15.25 dB 4:15 03-Trav'lin' Light
DR12 -0.04 dB -16.86 dB 3:04 04-P.S. I Love You
DR10 0.00 dB -12.27 dB 2:29 05-I'll Always Be In Love With You
DR13 -0.02 dB -16.29 dB 3:02 06-Don't Worry 'Bout Me
DR11 0.00 dB -14.93 dB 3:25 07-Easy Living
DR13 -1.15 dB -17.80 dB 3:09 08-Embraceable You
DR12 0.00 dB -13.81 dB 4:04 09-Blues In The Night
DR11 0.00 dB -14.74 dB 2:24 10-Trouble In Mind
DR11 0.00 dB -14.04 dB 3:16 11-How Long Will It Take To Be A Man
DR13 -0.01 dB -16.58 dB 3:13 12-I Got It Bad (And That Ain't Good)
------

Number of tracks: 12
Official DR value: DR12

Samplerate: 44100 Hz
Channels: 2
Bits per sample: 16
Bitrate: 763 kbps
Codec: FLAC

Jimmy Witherspoon - Blues For Easy Livers (1966) [Remastered 1996]

Jimmy Witherspoon - Blues For Easy Livers (1966) [Remastered 1996]

All thanks to original releaser - рмх222


DOWNLOAD LINKS:
Buy Premium To Support Me & Get Resumable Support & Max Speed


Links are Interchangeable - No Password - Single Extraction
Direct Download

Tags: Witherspoon, Livers, Remastered

Jimmy Witherspoon - Blues For Easy Livers (1966) [Remastered 1996] Download via Hotfile Rapidshare Fileserve Megaupload & FileSonic, Jimmy Witherspoon - Blues For Easy Livers (1966) [Remastered 1996] free torrent downloads included crack, serial, keygen.Jimmy Witherspoon - Blues For Easy Livers (1966) [Remastered 1996] Fast Download via Rapidshare Hotfile Fileserve Filesonic Megaupload, Jimmy Witherspoon - Blues For Easy Livers (1966) [Remastered 1996] Torrents and Emule Download or anything related.
Leave a Comment
Your Name:
E-Mail:
Add Comments:

Enter Code: