Captain Beefheart And The Magic Band - Unconditionally Guaranteed (1974)

Download Now

Captain Beefheart And The Magic Band - Unconditionally Guaranteed (1974)

Captain Beefheart And The Magic Band - Unconditionally Guaranteed (1974)
EAC | Flac(Image) + Cue + Log & MP3 CBR 320Kbps
1987 | Virgin, CDV2015 | ~ 198 or 86 Mb | Scans Included
Alternative Rock / Pop Rock / Classic Rock

"Unconditionally Guaranteed, the universally derided album from Captain Beefheart and The Magic Band is commonly regarded as the nadir of the Captain's career, the pariah among the pearls. From the cover depicting a weasel-eyed Beefheart clutching fistfuls of money to the lightweight and accessible tunes centring on themes of love, sex and happiness, people claim to hate this album with a burning passion. Even Beefheart wrote it off, insisting that buyers should take it back to the shop and get their money back, taking advantage of the guarantee..."


Tracklist:

1. Upon the My-O-My - 2:43
2. Sugar Bowl - 2:13
3. New Electric Ride - 3:02
4. Magic Be - 2:55
5. Happy Love Song - 3:54
6. Full Moon, Hot Sun - 2:19
7. I Got Love on My Mind - 3:08
8. This Is the Day - 4:51
9. Lazy Music - 2:49
10. Peaches - 3:20

Musicians:

Zoot Horn Rollo - guitar and glass finger guitar
Art Tripp - drums and percussion
Rockette Morton - bass
Mark Marcellino - keyboards
Alex Saint Klaire - guitar
Captain Beefheart is Don Van Vliet - vocals, harmonicav


Exact Audio Copy V0.99 prebeta 4 from 23. January 2008

EAC extraction logfile from 2. July 2008, 21:59

Captain Beefheart And The Magic Band / Unconditionally Guaranteed

Used drive : _NEC DVD_RW ND-4570A Adapter: 0 ID: 1

Read mode : Secure
Utilize accurate stream : Yes
Defeat audio cache : Yes
Make use of C2 pointers : No

Read offset correction

: 48
Overread into Lead-In and Lead-Out : No
Fill up missing offset samples with silence : Yes
Delete leading and trailing silent blocks : No
Null samples used in CRC calculations : Yes
Used interface
: Installed external ASPI interface
Gap handling
: Appended to previous track

Used output format : User Defined Encoder
Selected bitrate : 768 kBit/s
Quality : High
Add ID3 tag : Yes
Command line compressor : C:\Program Files\Exact Audio Copy\FLAC\FLAC.EXE
Additional command line options : -6 -V -T "ARTIST=%a" -T "TITLE=%t" -T "ALBUM=%g" -T "DATE=%y" -T "TRACKNUMBER=%n" -T "GENRE=%m" -T "COMMENT=%e" %s -o %d

TOC of the extracted CD Track | Start | Length | Start sector | End sector
1 | 0:00.33 | 2:43.32 | 33 | 12289 2 | 2:43.65 | 2:13.13 | 12290 | 22277 3 | 4:57.03 | 3:02.37 | 22278 | 35964 4 | 7:59.40 | 2:55.68 | 35965 | 49157 5 | 10:55.33 | 3:54.27 | 49158 | 66734 6 | 14:49.60 | 2:19.05 | 66735 | 77164 7 | 17:08.65 | 3:08.03 | 77165 | 91267 8 | 20:16.68 | 4:51.10 | 91268 | 113102 9 | 25:08.03 | 2:51.47 | 113103 | 125974
10 | 27:59.50 | 3:20.58 | 125975 | 141032

Track 1 Filename D:\###\%flac\Captain Beefheart And The Magic Band . 1974 . Unconditionally Guaranteed\01. Upon The My-O-My [ Captain Beefheart And The Magic Band ].wav Pre-gap length 0:00:02.33 Peak level 97.7 %
Track quality 100.0 %
Copy CRC D8AE6FA1
Copy OK

Track 2 Filename D:\###\%flac\Captain Beefheart And The Magic Band . 1974 . Unconditionally Guaranteed\02. Sugar Bowl [ Captain Beefheart And The Magic Band ].wav Pre-gap length 0:00:02.02 Peak level 85.8 %
Track quality 100.0 %
Copy CRC 2CCD1535
Copy OK

Track 3 Filename D:\###\%flac\Captain Beefheart And The Magic Band . 1974 . Unconditionally Guaranteed\03. New Electric Ride [ Captain Beefheart And The Magic Band ].wav Pre-gap length 0:00:00.03 Peak level 95.5 %
Track quality 100.0 %
Copy CRC 7C612BC8
Copy OK

Track 4 Filename D:\###\%flac\Captain Beefheart And The Magic Band . 1974 . Unconditionally Guaranteed\04. Magic Be [ Captain Beefheart And The Magic Band ].wav Pre-gap length 0:00:01.07 Peak level 97.7 %
Track quality 100.0 %
Copy CRC 8141EA67
Copy OK

Track 5 Filename D:\###\%flac\Captain Beefheart And The Magic Band . 1974 . Unconditionally Guaranteed\05. Happy Love Song [ Captain Beefheart And The Magic Band ].wav Pre-gap length 0:00:01.15 Peak level 95.5 %
Track quality 100.0 %
Copy CRC 8EFD69FE
Copy OK

Track 6 Filename D:\###\%flac\Captain Beefheart And The Magic Band . 1974 . Unconditionally Guaranteed\06. Full Moon, Hot Sun [ Captain Beefheart And The Magic Band ].wav Pre-gap length 0:00:01.02 Peak level 94.8 %
Track quality 100.0 %
Copy CRC FAD93A0B
Copy OK

Track 7 Filename D:\###\%flac\Captain Beefheart And The Magic Band . 1974 . Unconditionally Guaranteed\07. I Got Love On My Mind [ Captain Beefheart And The Magic Band ].wav Pre-gap length 0:00:00.02 Peak level 92.9 %
Track quality 100.0 %
Copy CRC 28789FF5
Copy OK

Track 8 Filename D:\###\%flac\Captain Beefheart And The Magic Band . 1974 . Unconditionally Guaranteed\08. This Is The Day [ Captain Beefheart And The Magic Band ].wav Pre-gap length 0:00:01.18 Peak level 95.5 %
Track quality 100.0 %
Copy CRC A1873364
Copy OK

Track 9 Filename D:\###\%flac\Captain Beefheart And The Magic Band . 1974 . Unconditionally Guaranteed\09. Lazy Music [ Captain Beefheart And The Magic Band ].wav Pre-gap length 0:00:02.10 Peak level 95.5 %
Track quality 100.0 %
Copy CRC A1BA8635
Copy OK

Track 10 Filename D:\###\%flac\Captain Beefheart And The Magic Band . 1974 . Unconditionally Guaranteed\10. Peaches [ Captain Beefheart And The Magic Band ].wav Pre-gap length 0:00:02.07 Peak level 95.5 %
Track quality 100.0 %
Copy CRC C09F065E
Copy OK

No errors occurred

End of status report

foobar2000 1.2.9 / Dynamic Range Meter 1.1.1
log date: 2015-06-25 08:27:01

------
Analyzed: Captain Beefheart And The Magic Band / Unconditionally Guaranteed
------

DR Peak RMS Duration Track
------
DR15 -0.20 dB -17.76 dB 2:43 01-Upon The My-O-My
DR13 -1.32 dB -17.47 dB 2:13 02-Sugar Bowl
DR14 -0.40 dB -15.90 dB 3:02 03-New Electric Ride
DR15 -0.20 dB -17.05 dB 2:56 04-Magic Be
DR13 -0.40 dB -16.22 dB 3:54 05-Happy Love Song
DR13 -0.46 dB -15.83 dB 2:19 06-Full Moon, Hot Sun
DR13 -0.63 dB -16.70 dB 3:08 07-I Got Love On My Mind
DR13 -0.40 dB -15.93 dB 4:51 08-This Is The Day
DR16 -0.40 dB -19.61 dB 2:52 09-Lazy Music
DR13 -0.40 dB -15.39 dB 3:21 10-Peaches
------

Number of tracks: 10
Official DR value: DR14

Samplerate: 44100 Hz
Channels: 2
Bits per sample: 16
Bitrate: 805 kbps
Codec: FLAC

[CUETools log; Date: 25.06.2015 8:27:09; Version: 2.1.4]
Pregap length 00:00:33.
[CTDB TOCID: 3UiAjRXeNvDv75.TrSlS2PX0YI0-] found.
Track | CTDB Status
1 | (7/7) Accurately ripped
2 | (7/7) Accurately ripped
3 | (7/7) Accurately ripped
4 | (6/7) Accurately ripped
5 | (7/7) Accurately ripped
6 | (6/7) Accurately ripped
7 | (7/7) Accurately ripped
8 | (7/7) Accurately ripped
9 | (6/7) Accurately ripped
10 | (6/7) Accurately ripped
[AccurateRip ID: 000b371b-005b42ae-7a07580a] found.
Track [ CRC | V2 ] Status
01 [8588078a|57cc9b44] (08+07/57) Accurately ripped
02 [4a934a09|7aae0656] (08+07/56) Accurately ripped
03 [75501c91|a150e45c] (08+07/57) Accurately ripped
04 [e940fdd7|760b916c] (08+07/57) Accurately ripped
05 [7860cbe8|787ccff0] (08+07/57) Accurately ripped
06 [c93b1ee6|26d8b7b7] (08+07/57) Accurately ripped
07 [3af13edf|78820a1a] (08+07/57) Accurately ripped
08 [3c9ce784|7ed12612] (08+06/56) Accurately ripped
09 [4380269c|20151b7b] (08+07/57) Accurately ripped
10 [7054b2cc|5c144348] (08+06/55) Accurately ripped
Offsetted by -333:
01 [663ff0d1] (00/57) No match (V2 was not tested)
02 [3477aef2] (00/56) No match (V2 was not tested)
03 [56dc1125] (00/57) No match (V2 was not tested)
04 [93466773] (00/57) No match (V2 was not tested)
05 [658e792f] (00/57) No match (V2 was not tested)
06 [e0465d90] (00/57) No match (V2 was not tested)
07 [afdd36f7] (00/57) No match (V2 was not tested)
08 8fa6c08 (00/56) No match (V2 was not tested)
09 [d5fc9dd6] (00/57) No match (V2 was not tested)
10 [d7e4c258] (00/55) No match (V2 was not tested)

Track Peak [ CRC32 ] [W/O NULL] [ LOG ]
-- 97,7 [F078C2C7] [6584212E]
01 97,7 [D8AE6FA1] [DFACA909] CRC32
02 85,8 [2CCD1535] [602535CB] CRC32
03 95,5 [7C612BC8] [289E834E] CRC32
04 97,7 [8141EA67] [EEB64A99] CRC32
05 95,5 [8EFD69FE] [2BB405C0] CRC32
06 94,8 [FAD93A0B] [8AF168BB] CRC32
07 92,9 [28789FF5] [CDADF1E2] CRC32
08 95,5 [A1873364] [72BB9384] CRC32
09 95,5 [A1BA8635] [3FDA8D4F] CRC32
10 95,5 [C09F065E] [6B808739] CRC32

Captain Beefheart And The Magic Band - Unconditionally Guaranteed (1974)

DOWNLOAD LINKS
Buy Premium From My Links To Get Resumable Support & Max Speed & To Support Me


Links are Interchangeable - No Password - Single Extraction
Direct Download

Tags: Captain, Beefheart, Unconditionally, Guaranteed

Captain Beefheart And The Magic Band - Unconditionally Guaranteed (1974) Download via Hotfile Rapidshare Fileserve Megaupload & FileSonic, Captain Beefheart And The Magic Band - Unconditionally Guaranteed (1974) free torrent downloads included crack, serial, keygen.Captain Beefheart And The Magic Band - Unconditionally Guaranteed (1974) Fast Download via Rapidshare Hotfile Fileserve Filesonic Megaupload, Captain Beefheart And The Magic Band - Unconditionally Guaranteed (1974) Torrents and Emule Download or anything related.
Leave a Comment
Your Name:
E-Mail:
Add Comments:

Enter Code: