Art Blakey & Les Jazz-Messengers - Au Club Saint-Germain Vol.1 (1959) {2014 Japan Jazz Collection 1000 Columbia-RCA Series}

Download Now


Art Blakey & Les Jazz-Messengers - Au Club Saint-Germain Vol.1 (1959) {2014 Japan Jazz Collection 1000 Columbia-RCA Series}
Art Blakey & Les Jazz-Messengers - Au Club Saint-Germain Vol.1 (1959) {2014 Japan Jazz Collection 1000 Columbia-RCA Series}
EAC rip (secure mode) | FLAC (tracks)+CUE+LOG -> 293 Mb | MP3 @320 -> 107 Mb
Full Artwork @ 600 dpi (png) -> 188 Mb | 5% repair rar
© 2014 RCA / Sony Music Japan | SICP 3966
Jazz / Hard Bop

"Grand Prix Du Disque De L'académie Charles Cros 1959. Recorded at the celebrated Club Saint Germain, the formation presented here marks the third incarnation of Art Blakey's Jazz Messengers, with trumpeter Lee Morgan (then only 20 years old), tenor saxophonist Benny Golson, pianist Bobby Timmons and bassist Jymie Merrit. For the last two tunes, bop drum pioneer Kenny Clarke (who was living in Paris) substitutes Blakey. Besides the individual gifts of each member, the group forms a compact unit with a cohesive sound. "We play modern jazz", explained Blakey during a 1958 interview, "and to understand it you mus listen. We study, we rehearse. The Jazz Messengers are very serious about getting the music across to you. If you don't want to listen, maybe the person sitting next to you does.""

Art Blakey & Les Jazz-Messengers - Au Club Saint-Germain Vol.1 (1959) {2014 Japan Jazz Collection 1000 Columbia-RCA Series}


Personnel:
Art Blakey - drums
Lee Morgan - trumpet
Benny Golson - tenor saxophone
Bobby Timmons - piano
Jymie Merritt - bass

tracklist:
01 - Politely
02 - Whisper Not
03 - Now's The Time
04 - The First Theme

Exact Audio Copy V1.0 beta 6 from 9. April 2015

EAC extraction logfile from 25. June 2015, 17:04

Art Blakey & Les Jazz-Messengers / Au Club Saint-Germain Vol.1

Used drive : ATAPI iHAS124 B Adapter: 2 ID: 0

Read mode : Secure
Utilize accurate stream : Yes
Defeat audio cache : Yes
Make use of C2 pointers : No

Read offset correction

: 6
Overread into Lead-In and Lead-Out : No
Fill up missing offset samples with silence : Yes
Delete leading and trailing silent blocks : No
Null samples used in CRC calculations : Yes
Used interface
: Installed external ASPI interface
Gap handling
: Appended to previous track

Used output format : User Defined Encoder
Selected bitrate : 1024 kBit/s
Quality : High
Add ID3 tag : No
Command line compressor : C:\Program Files (x86)\FLAC Frontend\tools\flac.exe
Additional command line options : -8 -V -T "ARTIST=%artist%" -T "TITLE=%title%" -T "ALBUM=%albumtitle%" -T "DATE=%year%" -T "TRACKNUMBER=%tracknr%" -T "TOTALTRACKS=%numtracks%" -T "GENRE=%genre%" -T "ALBUMARTIST=%albumartist%" -T "ALBUM ARTIST=%albumartist%" -T "COMMENT=EAC Secure Mode, Test & Copy, AccurateRip, FLAC -8" %source%

TOC of the extracted CD Track | Start | Length | Start sector | End sector
--1 | 0:00.00 | 15:44.35 | 0 | 70834 2 | 15:44.35 | 7:16.67 | 70835 | 103601 3 | 23:01.27 | 13:37.25 | 103602 | 164901 4 | 36:38.52 | 8:29.50 | 164902 | 203126

Track 1 Filename D:\_EAC\Art Blakey & Les Jazz-Messengers - Au Club Saint-Germain Vol.1 (1959) [FLAC] {2014 Japan}\01 - Politely.wav Pre-gap length 0:00:02.00 Peak level 98.0 %
Extraction speed 4.3 X
Track quality 100.0 %
Test CRC DD9D36F8
Copy CRC DD9D36F8
Accurately ripped (confidence 1) [683A9676] (AR v2)
Copy OK

Track 2 Filename D:\_EAC\Art Blakey & Les Jazz-Messengers - Au Club Saint-Germain Vol.1 (1959) [FLAC] {2014 Japan}\02 - Whisper Not.wav Pre-gap length 0:00:03.20 Peak level 98.0 %
Extraction speed 4.6 X
Track quality 99.9 %
Test CRC 8E8DF574
Copy CRC 8E8DF574
Accurately ripped (confidence 1) [C6CEE185] (AR v2)
Copy OK

Track 3 Filename D:\_EAC\Art Blakey & Les Jazz-Messengers - Au Club Saint-Germain Vol.1 (1959) [FLAC] {2014 Japan}\03 - Now's The Time.wav Pre-gap length 0:00:04.50 Peak level 98.0 %
Extraction speed 5.7 X
Track quality 99.9 %
Test CRC 61E1CB1C
Copy CRC 61E1CB1C
Accurately ripped (confidence 1) [73E08C57] (AR v2)
Copy OK

Track 4 Filename D:\_EAC\Art Blakey & Les Jazz-Messengers - Au Club Saint-Germain Vol.1 (1959) [FLAC] {2014 Japan}\04 - The First Theme.wav Pre-gap length 0:00:03.47 Peak level 98.0 %
Extraction speed 6.6 X
Track quality 100.0 %
Test CRC 7B8BE4B8
Copy CRC 7B8BE4B8
Accurately ripped (confidence 1) [1BA59338] (AR v2)
Copy OK

All tracks accurately ripped

No errors occurred

End of status report

==== Log checksum 975F62935B9413B0B3A1826E91424D9DDB310DF566E657F393D7F450985B0882 ====

Art Blakey & Les Jazz-Messengers - Au Club Saint-Germain Vol.1 (1959) {2014 Japan Jazz Collection 1000 Columbia-RCA Series}

Art Blakey & Les Jazz-Messengers - Au Club Saint-Germain Vol.1 (1959) {2014 Japan Jazz Collection 1000 Columbia-RCA Series}

DOWNLOAD LINKS:
Buy Premium To Support Me & Get Resumable Support & Max Speed


Links are Interchangeable - No Password - Single Extraction
Direct Download

Tags: Blakey, Collection, Columbia, Series

Art Blakey & Les Jazz-Messengers - Au Club Saint-Germain Vol.1 (1959) {2014 Japan Jazz Collection 1000 Columbia-RCA Series} Download via Hotfile Rapidshare Fileserve Megaupload & FileSonic, Art Blakey & Les Jazz-Messengers - Au Club Saint-Germain Vol.1 (1959) {2014 Japan Jazz Collection 1000 Columbia-RCA Series} free torrent downloads included crack, serial, keygen.Art Blakey & Les Jazz-Messengers - Au Club Saint-Germain Vol.1 (1959) {2014 Japan Jazz Collection 1000 Columbia-RCA Series} Fast Download via Rapidshare Hotfile Fileserve Filesonic Megaupload, Art Blakey & Les Jazz-Messengers - Au Club Saint-Germain Vol.1 (1959) {2014 Japan Jazz Collection 1000 Columbia-RCA Series} Torrents and Emule Download or anything related.
Leave a Comment
Your Name:
E-Mail:
Add Comments:

Enter Code: