Three Days Grace - Human (2015) {RCA}

Download Now


Three Days Grace - Human (2015) {RCA}
Three Days Grace - Human (2015) {RCA}
EAC rip (secure mode) | FLAC (tracks)+CUE+LOG -> 288 Mb | MP3 @320 -> 94 Mb
Full Artwork @ 300 dpi (png) -> 94 Mb | 5% repair rar
© 2015 RCA Records / Sony Music | 88843-09808-2
Rock / Alternative Metal / Heavy Metal

"With lead singer Adam Gontier leaving the band in 2013, Human is Three Days Grace's first album with a new vocalist, bass player Brad Walst's brother, Matt Walst (My Darkest Days), who had done some co-writing on previous releases. A darker, loss-inspired work, Human was also informed by struggles around them with personal issues and substance abuse. Written largely on the road and produced by Gavin Brown, who also produced their self-titled debut, the album yielded two number one singles on the Billboard Mainstream Rock Songs chart, "Painkiller" and "I Am Machine," before its release."

Three Days Grace - Human (2015) {RCA}


Personnel:
Matt Walst - lead vocals
Barry Stock - guitar
Neil Sanderson - drums, percussion, backing vocals
Brad Walst - bass guitar

Additional personnel
Dani Rosenoer - keyboards, synth

tracklist:
01 - Human Race
02 - Painkiller
03 - Fallen Angel
04 - Landmine
05 - Tell Me Why
06 - I Am Machine
07 - So What
08 - Car Crash
09 - Nothing's Fair In Love And War
10 - One Too Many
11 - The End Is Not The Answer
12 - The Real You

Exact Audio Copy V1.0 beta 3 from 29. August 2011

EAC extraction logfile from 5. May 2015, 22:51

Three Days Grace / Human

Used drive : Optiarc DVD RW AD-7241S Adapter: 5 ID: 1

Read mode : Secure
Utilize accurate stream : Yes
Defeat audio cache : Yes
Make use of C2 pointers : No

Read offset correction

: 48
Overread into Lead-In and Lead-Out : No
Fill up missing offset samples with silence : Yes
Delete leading and trailing silent blocks : No
Null samples used in CRC calculations : Yes
Used interface
: Native Win32 interface for Win NT & 2000
Gap handling
: Appended to previous track

Used output format : User Defined Encoder
Selected bitrate : 1024 kBit/s
Quality : High
Add ID3 tag : No
Command line compressor : C:\Program Files\EAC1.3\Flac\flac.exe
Additional command line options : -8 -V -T "ARTIST=%artist%" -T "TITLE=%title%" -T "ALBUM=%albumtitle%" -T "DATE=%year%" -T "TRACKNUMBER=%tracknr%" -T "TOTALTRACKS=%numtracks%" -T "GENRE=%genre%" -T "ALBUMARTIST=%albumartist%" -T "ALBUM ARTIST=%albumartist%" -T "COMMENT=EAC Secure Mode, Test & Copy, AccurateRip, FLAC -8" %source%

TOC of the extracted CD Track | Start | Length | Start sector | End sector
--1 | 0:00.00 | 4:09.21 | 0 | 18695 2 | 4:09.21 | 2:59.12 | 18696 | 32132 3 | 7:08.33 | 3:06.11 | 32133 | 46093 4 | 10:14.44 | 3:25.39 | 46094 | 61507 5 | 13:40.08 | 3:30.55 | 61508 | 77312 6 | 17:10.63 | 3:21.13 | 77313 | 92400 7 | 20:32.01 | 2:57.50 | 92401 | 105725 8 | 23:29.51 | 2:50.68 | 105726 | 118543 9 | 26:20.44 | 3:44.57 | 118544 | 135400
10 | 30:05.26 | 2:41.03 | 135401 | 147478
11 | 32:46.29 | 2:52.45 | 147479 | 160423
12 | 35:38.74 | 3:55.43 | 160424 | 178091

Track 1 Filename C:\EACcd\01 - Human Race.wav Pre-gap length 0:00:02.00 Peak level 89.5 %
Extraction speed 2.5 X
Track quality 100.0 %
Test CRC E2F5ACEF
Copy CRC E2F5ACEF
Accurately ripped (confidence 1) [C2101EA0] (AR v2)
Copy OK

Track 2 Filename C:\EACcd\02 - Painkiller.wav Peak level 98.0 %
Extraction speed 2.6 X
Track quality 100.0 %
Test CRC C6D67D0C
Copy CRC C6D67D0C
Accurately ripped (confidence 1) A3A9947 (AR v2)
Copy OK

Track 3 Filename C:\EACcd\03 - Fallen Angel.wav Peak level 100.0 %
Extraction speed 2.8 X
Track quality 100.0 %
Test CRC B9D2C6E4
Copy CRC B9D2C6E4
Accurately ripped (confidence 1) [62E51A16] (AR v2)
Copy OK

Track 4 Filename C:\EACcd\04 - Landmine.wav Peak level 100.0 %
Extraction speed 2.6 X
Track quality 99.9 %
Test CRC 9B1FB885
Copy CRC 9B1FB885
Accurately ripped (confidence 1) [76BC44C0] (AR v2)
Copy OK

Track 5 Filename C:\EACcd\05 - Tell Me Why.wav Peak level 100.0 %
Extraction speed 3.2 X
Track quality 100.0 %
Test CRC C55EB075
Copy CRC C55EB075
Accurately ripped (confidence 1) [E109E365] (AR v2)
Copy OK

Track 6 Filename C:\EACcd\06 - I Am Machine.wav Peak level 100.0 %
Extraction speed 2.9 X
Track quality 99.9 %
Test CRC 7FCC01AD
Copy CRC 7FCC01AD
Accurately ripped (confidence 1) 152D1F7 (AR v2)
Copy OK

Track 7 Filename C:\EACcd\07 - So What.wav Pre-gap length 0:00:01.02 Peak level 100.0 %
Extraction speed 3.4 X
Track quality 100.0 %
Test CRC D51C2EC3
Copy CRC D51C2EC3
Accurately ripped (confidence 1) [C70A0D82] (AR v2)
Copy OK

Track 8 Filename C:\EACcd\08 - Car Crash.wav Peak level 99.3 %
Extraction speed 3.5 X
Track quality 100.0 %
Test CRC 12480A10
Copy CRC 12480A10
Accurately ripped (confidence 1) [FCA8E436] (AR v2)
Copy OK

Track 9 Filename C:\EACcd\09 - Nothing's Fair In Love And War.wav Peak level 100.0 %
Extraction speed 3.3 X
Track quality 99.9 %
Test CRC 7A50212B
Copy CRC 7A50212B
Accurately ripped (confidence 1) [4EA835AE] (AR v2)
Copy OK

Track 10 Filename C:\EACcd\10 - One Too Many.wav Peak level 100.0 %
Extraction speed 3.7 X
Track quality 100.0 %
Test CRC A527ECE0
Copy CRC A527ECE0
Accurately ripped (confidence 1) [1B02F611] (AR v2)
Copy OK

Track 11 Filename C:\EACcd\11 - The End Is Not The Answer.wav Peak level 100.0 %
Extraction speed 3.8 X
Track quality 100.0 %
Test CRC EBFFDE3C
Copy CRC EBFFDE3C
Accurately ripped (confidence 1) [886EEDE9] (AR v2)
Copy OK

Track 12 Filename C:\EACcd\12 - The Real You.wav Peak level 100.0 %
Extraction speed 4.2 X
Track quality 100.0 %
Test CRC 8C9AA78A
Copy CRC 8C9AA78A
Accurately ripped (confidence 1) [97FECADD] (AR v2)
Copy OK

All tracks accurately ripped

No errors occurred

End of status report

- CUETools DB Plugin V2.1.3

[CTDB TOCID: eNor1TTvnBRvFRZ3uPZJHtIBcsU-] found, Submit result: eNor1TTvnBRvFRZ3uPZJHtIBcsU- has been confirmed
[616748e9] (28/28) Accurately ripped

==== Log checksum 9A01117F2C41DACA7D375DDB575AC8D303C6D0453FDE45009385032F3392CEBB ====

Three Days Grace - Human (2015) {RCA}

Three Days Grace - Human (2015) {RCA}


All thanks goes to the original releaser!
DOWNLOAD LINKS
Buy Premium From My Links To Get Resumable Support & Max Speed & To Support Me


Links are Interchangeable - No Password - Single Extraction
Direct Download

Three Days Grace - Human (2015) {RCA} Download via Hotfile Rapidshare Fileserve Megaupload & FileSonic, Three Days Grace - Human (2015) {RCA} free torrent downloads included crack, serial, keygen.Three Days Grace - Human (2015) {RCA} Fast Download via Rapidshare Hotfile Fileserve Filesonic Megaupload, Three Days Grace - Human (2015) {RCA} Torrents and Emule Download or anything related.
Leave a Comment
Your Name:
E-Mail:
Add Comments:

Enter Code: