John Lodge - 10,000 Light Years Ago (2015)

Download Now

John Lodge - 10,000 Light Years Ago (2015)

John Lodge - 10,000 Light Years Ago (2015)
EAC | Flac(Image) + Cue + Log & MP3 CBR 320Kbps
Esoteric Antenna, EANTCD 1049 | ~ 215 or 75 Mb | Scans Included
Prog Rock / Pop Rock

"10,000 Light Years Ago' is John's second solo album - his first, 'Natural Avenue', was released in 1977. Recorded at various locations and completed at The Mix Factory studios in Florida, the album features guest contributions from former Moody Blues members RAY THOMAS and MIKE PINDER and legendary guitarist CHRIS SPEDDING among others. 10,000 Light Years Ago' features some of the finest songs of John's impressive career..."


Tracklist:

01. In My Mind 04:53
02. Those Days in Birmingham 03:17
03. Simply Magic 02:44
04. Get Me Out Of Here 03:55
05. Love Passed Me By 03:24
06. (You Drive Me) Crazy 02:38
07. Lose Your Love 04:01
08. 10,000 Light Years Ago 04:55

Exact Audio Copy V1.0 beta 6 from 9. April 2015

EAC extraction logfile from 20. June 2015, 20:13

John Lodge / 10,000 Light Years Ago

Used drive : Optiarc DVD RW AD-5280S Adapter: 1 ID: 1

Read mode : Secure
Utilize accurate stream : Yes
Defeat audio cache : Yes
Make use of C2 pointers : No

Read offset correction

: 48
Overread into Lead-In and Lead-Out : No
Fill up missing offset samples with silence : Yes
Delete leading and trailing silent blocks : No
Null samples used in CRC calculations : Yes
Used interface
: Native Win32 interface for Win NT & 2000

Used output format : User Defined Encoder
Selected bitrate : 1024 kBit/s
Quality : High
Add ID3 tag : No
Command line compressor : C:\Program Files\Exact Audio Copy\flac-1.3.1-win\win32\flac.exe
Additional command line options : -8 -V -T "ARTIST=%artist%" -T "TITLE=%title%" -T "ALBUM=%albumtitle%" -T "DATE=%year%" -T "TRACKNUMBER=%tracknr%" -T "GENRE=%genre%" -T "COMMENT=%comment%" %source% -o %dest%

TOC of the extracted CD Track | Start | Length | Start sector | End sector
--1 | 0:00.00 | 4:53.71 | 0 | 22045 2 | 4:53.71 | 3:17.46 | 22046 | 36866 3 | 8:11.42 | 2:44.31 | 36867 | 49197 4 | 10:55.73 | 3:55.07 | 49198 | 66829 5 | 14:51.05 | 3:24.35 | 66830 | 82164 6 | 18:15.40 | 2:38.20 | 82165 | 94034 7 | 20:53.60 | 4:01.18 | 94035 | 112127 8 | 24:55.03 | 4:55.05 | 112128 | 134257

Range status and errors

Selected range Filename C:\Sket4er\John Lodge - 10,000 Light Years Ago 2015 flac\John Lodge - 10,000 Light Years Ago.wav Peak level 98.2 %
Extraction speed 3.6 X
Range quality 100.0 %
Test CRC 1272D98D
Copy CRC 1272D98D
Copy OK

No errors occurred


AccurateRip summary

Track 1 cannot be verified as accurate (confidence 1) [8E3ACC65], AccurateRip returned [F7C3CF05] (AR v2)
Track 2 cannot be verified as accurate (confidence 1) [0693F5F6], AccurateRip returned [FE4DA85C] (AR v2)
Track 3 cannot be verified as accurate (confidence 1) [44E9C3C0], AccurateRip returned 5950D6A (AR v2)
Track 4 cannot be verified as accurate (confidence 1) [D59BEEF0], AccurateRip returned [2F4E0EBF] (AR v2)
Track 5 cannot be verified as accurate (confidence 1) [5E7F7E07], AccurateRip returned [8EE0A8FA] (AR v2)
Track 6 cannot be verified as accurate (confidence 1) [6F2A4954], AccurateRip returned [449BFE7D] (AR v2)
Track 7 cannot be verified as accurate (confidence 1) [E4864EC2], AccurateRip returned [6B2BC7D1] (AR v2)
Track 8 cannot be verified as accurate (confidence 1) [A6CD3918], AccurateRip returned [FCE230A1] (AR v2)

No tracks could be verified as accurate
You may have a different pressing from the one(s) in the database

End of status report

- CUETools DB Plugin V2.1.6

[CTDB TOCID: AWwGk1Rb6U.RSMwas6SqCxZRqoI-] found
Submit result: AWwGk1Rb6U.RSMwas6SqCxZRqoI- has been confirmed
Track | CTDB Status
1 | (5/5) Accurately ripped
2 | (5/5) Accurately ripped
3 | (5/5) Accurately ripped
4 | (5/5) Accurately ripped
5 | (5/5) Accurately ripped
6 | (4/5) Accurately ripped, or (1/5) differs in 180 samples @01:43:36
7 | (5/5) Accurately ripped
8 | (5/5) Accurately ripped

==== Log checksum B6932EA708FE331A294B290C9904A081754E20A0531BE31890A919C4DC87162C ====

foobar2000 1.2.9 / Dynamic Range Meter 1.1.1
log date: 2015-06-26 15:24:36

Analyzed: John Lodge / 10,000 Light Years Ago

DR Peak RMS Duration Track

DR5 -0.16 dB -7.63 dB 4:54 01-In My Mind
DR6 -0.16 dB -7.73 dB 3:18 02-Those Days In Birmingham
DR8 -0.16 dB -9.88 dB 2:44 03-Simply Magic
DR6 -0.16 dB -7.91 dB 3:55 04-Get Me Out Of Here
DR9 -0.16 dB -10.49 dB 3:24 05-Love Passed Me By
DR7 -0.16 dB -7.40 dB 2:38 06-(You Drive Me) Crazy
DR7 -0.16 dB -9.81 dB 4:01 07-Lose Your Love
DR6 -0.16 dB -7.57 dB 4:55 08-10,000 Light Years Ago

Number of tracks: 8
Official DR value: DR7

Samplerate: 44100 Hz
Channels: 2
Bits per sample: 16
Bitrate: 955 kbps
Codec: FLAC

[CUETools log; Date: 20.06.2015 20:16:16; Version: 2.1.4]
[CTDB TOCID: AWwGk1Rb6U.RSMwas6SqCxZRqoI-] found.
Track | CTDB Status
1 | (6/6) Accurately ripped
2 | (6/6) Accurately ripped
3 | (6/6) Accurately ripped
4 | (6/6) Accurately ripped
5 | (6/6) Accurately ripped
6 | (5/6) Accurately ripped, or (1/6) differs in 180 samples @01:43:36
7 | (6/6) Accurately ripped
8 | (6/6) Accurately ripped
[AccurateRip ID: 00091e17-003c2749-7b06fe08] found.
Track [ CRC | V2 ] Status
01 [38397b91|8e3acc65] (0+0/1) No match
02 [1a5de19d|0693f5f6] (0+0/1) No match
03 [8423c80c|44e9c3c0] (0+0/1) No match
04 7f2cbd2|d59beef0 (0+0/1) No match
05 [72b705f6|5e7f7e07] (0+0/1) No match
06 [aca95749|6f2a4954] (0+0/1) No match
07 [218d6bd3|e4864ec2] (0+0/1) No match
08 [8fded542|a6cd3918] (0+0/1) No match
Offsetted by 6:
01 [a40b8071] (0/1) No match (V2 was not tested)
02 [13a1d13f] (0/1) No match (V2 was not tested)
03 [f6157444] (0/1) No match (V2 was not tested)
04 [1379d2c0] (0/1) No match (V2 was not tested)
05 [a4b2a588] (0/1) No match (V2 was not tested)
06 [cc1e9871] (0/1) No match (V2 was not tested)
07 [aa0db407] (0/1) No match (V2 was not tested)
08 [e843d20c] (0/1) No match (V2 was not tested)

Track Peak [ CRC32 ] [W/O NULL] [ LOG ]
-- 98,2 [1272D98D] [F1D399EF] CRC32
01 98,2 [11C97BEA] [AB1A7C27]
02 98,2 [9156FAB6] [AC1FA7F3]
03 98,2 [E45D5B1A] [35A8328E]
04 98,2 [D1874E10] [383292EB]
05 98,2 [43A4ABBD] [D9E3A61B]
06 98,2 [472C6B9C] [6D1E96E2]
07 98,2 [766208AA] [F681D8BA]
08 98,2 [EE1511AF] [77E39CED]

John Lodge - 10,000 Light Years Ago (2015)

DOWNLOAD LINKS
Buy Premium From My Links To Get Resumable Support & Max Speed & To Support Me


Links are Interchangeable - No Password - Single Extraction
Direct Download

John Lodge - 10,000 Light Years Ago (2015) Download via Hotfile Rapidshare Fileserve Megaupload & FileSonic, John Lodge - 10,000 Light Years Ago (2015) free torrent downloads included crack, serial, keygen.John Lodge - 10,000 Light Years Ago (2015) Fast Download via Rapidshare Hotfile Fileserve Filesonic Megaupload, John Lodge - 10,000 Light Years Ago (2015) Torrents and Emule Download or anything related.
Leave a Comment
Your Name:
E-Mail:
Add Comments:

Enter Code: