Monique Haas plays Debussy & Ravel (2007) 6CD Box Set

Download Now

Monique Haas plays Debussy & Ravel (2007) 6CD Box Set

Monique Haas plays Debussy & Ravel (2007) 6CD Box Set
EAC | FLAC | Image (Cue&Log) ~ 1.63 Gb (incl 5%) | Mp3 (CBR320) ~ 1.02 Gb (incl 5%) | Scans included
Genre: Classical | Label: Erato/Warner Classics | # 2564 69967-2 | Time: 07:11:32

"French pianist Monique Haas recorded the piano works of Debussy and Ravel twice, once in the late '50s and early '60s for Deutsche Grammophon and again in the late '60s and early '70s for Erato. The later recordings are released here in this six disc set from Warner Classics. As on the earlier set, Haas' performances are elegantly stylish, technically impeccable, consummately musical, and quintessentially French. Pick any piece by either composer at random, and you'll see. Try her bright but sensual Suite Bergamasque with its ravishing Clair de lune or her brilliant and visionary Études with their astounding concluding Pour les accords. Or try her recklessly virtuosic Gaspard de la nuit with its frightening Scarbo or her sweetly swaying Valses nobles et sentimentales with its heartrending Épilogue. There are only two meaningful differences between Haas' recordings: in the earlier performance, she is more passionate and impetuous while in the later performances she is more measured and thoughtful."


Tracklist:

CD1:

Claude Debussy (1862-1918)

01. Danse Bohemienne (01:54)
02. Arabesque No.1 (03:49)
03. Arabesque No.2 (03:37)
04. Reverie (04:26)
05. Ballade slave (05:59)
06. Tarentelle styrienne (05:39)
07. Valse romantique (03:07)
08. Nocturne (06:39)
09. Mazurka (02:57)

Suite Bergamasque:

10. I. Prelude (04:22)
11. II. Menuet (04:05)
12. III. Clair de Lune (05:23)
13. IV. Passepied (04:38)

Pour le piano:

14. I. Prelude (04:22)
15. II. Sarabande (05:51)
16. III. Toccata (04:01)

17. Hommage a Haydn (02:19)

CD2:

Images - Serie I:

01. I. Reflets dans l'eau (05:21)
02. II. Hommage a Rameau (07:24)
03. III. Mouvement (03:33)

Images - Serie II:

04. I. Cloches a travers le feuilles (04:29)
05. II. Et la lune descend sur le temple qui fut (05:07)
06. III. Poissons d'or (04:01)

Preludes - Livre I:

07. I. Danseuses de Delphes (03:32)
08. II. Voiles (03:28)
09. III. Le Vent dans la plaine (02:27)
10. IV. 'Les sons et les parfums tournent dans l'air du soir' (04:00)
11. V. Les Collines d'Anacapri (03:01)
12. VI. Des as sur la neige (04:48)
13. VII. Ce qu'a vu le vent d'Ouest (03:31)
14. VIII. La Fille aux cheveux de lin (03:05)
15. IX. La Serenade interrompue (02:21)
16. X. La Cathedrale engloutie (06:47)
17. XI. La Danse de Puck (02:59)
18. XII. Minstrels (02:14)

19. Le Petit Negre (01:46)

CD3:

Preludes - Livre II:

01. I. Brouillards (03:12)
02. II. Feuilles mortes (03:42)
03. III. La Puerta del Vino (02:52)
04. IV. 'Les fees sont d'exquises danseuses' (03:08)
05. V. Bruyeres (03:01)
06. VI. General Lavine - eccentric (02:31)
07. VII. La Terrasse des audiences du clair de lune (04:27)
08. VIII. Ondine (03:29)
09. IX. Hommage a S. Pickwick Esq. P.P.M.P.C. (02:35)
10. X. Canope (03:15)
11. XI. Les tierces alternees (02:33)
12. XII. Feux d'artifice (04:17)

Estampes:

13. I. Pagodes (04:56)
14. II. La Soiree dans Grenade (05:33)
15. III. Jardins sous la pluie (03:45)

Children's Corner:

16. I. Docteur Gradus ad Parnassum (02:14)
17. II. Jimbo's Lullaby (02:44)
18. III. Serenade for the Doll (02:43)
19. IV. The Snow is Dancing (02:37)
20. V. The Little Shepherd (02:22)
21. VI. Golliwogg's Cake-walk (02:44)

CD4:

Etudes, Livre I:

01. I. Pour les 'cinq doigts', d'apres Monsieur Czerny (02:52)
02. II. Pour les Tierces (03:34)
03. III. Pour les Quartes (05:21)
04. IV. Pour les Sixtes (04:20)
05. V. Pour les Octaves (02:53)
06. VI. Pour les huit doigts (01:46)

Etudes, Livre II:

07. I. Pour les Degres chromatiques (02:29)
08. II. Pour les Agrements (04:49)
09. III. Pour les Notes repetees (03:10)
10. IV. Pour les Sonorites opposees (05:41)
11. V. Pour les Arpeges composes (04:22)
12. VI. Pour les Accords (04:39)

13. L'Isle joyeuse (05:36)
14. D'un cahier d'esquisses (04:58)
15. Masques (04:57)
16. La plus que lente (04:04)
17. Berceuse heroique (03:56)

CD5:

Maurice Ravel (1875-1937)

Miroirs:

01. I .Noctuelles (05:15)
02. II. Oiseaux tristes (04:53)
03. III. Une barque sur l'ocean (08:30)
04. IV. Alborada del gracioso (06:45)
05. V. La Vallee des cloches (05:59)

06. Jeux d'eau (05:40)
07. Pavane pour une infante defunte (07:10)
08. Menuet antique (06:28)
09. Prelude (01:44)
10. A la maniere de ... Chabrier (02:02)
11. A la maniere de ... Borodine (01:51)
12. Menuet sur le nom de Haydn (02:09)

Ma mere l'Oye:

13. I. Pavane de la Belle au bois dormant (01:33)
14. II. Petit Poucet (02:41)
15. III. Laideronnette, Imperatrice des pagodes (03:12)
16. IV. Les Entretiens de la Belle et de la Bete (03:56)
17. V. Le Jardin feerique (03:26)

CD6:

Le Tombeau de Couperin:

01. I. Prelude (03:17)
02. II. Fugue (03:13)
03. III. Forlane (05:10)
04. IV. Rigaudon (02:32)
05. V. Menuet (04:05)
06. VI. Toccata (04:06)

Gaspard de la nuit:

07. I. Ondine (06:48)
08. II. Le gibet (06:06)
09. III. Scarbo (09:04)

Sonatine:

10. I. Modere (04:31)
11. II. Mouvement de menuet (03:12)
12. III. Anime (04:20)

Valses nobles et sentimentales:

13. I. Modere (01:25)
14. II. Assez lent (02:37)
15. III. Modere (01:17)
16. IV. Assez anime (01:16)
17. V. Presque lent (01:31)
18. VI. Vif (00:43)
19. VII. Moins vif (02:53)
20. VIII. Epilogue (04:07)


Exact Audio Copy V1.0 beta 3 from 29. August 2011

Отчёт EAC об извлечении, выполненном 24. июня 2015, 18:09

Monique Haas / Debussy & Ravel - CD1

Дисковод: Optiarc DVD RW AD-7260S Adapter: 0 ID: 1

Режим чтения : Достоверность
Использование точного потока : Да
Отключение кэша аудио : Да
Использование указателей C2 : Нет

Коррекция смещения при чтении : 48
Способность читать области Lead-in и Lead-out : Нет
Заполнение пропущенных сэмплов тишиной : Да
Удаление блоков с тишиной в начале и конце : Нет
При вычислениях CRC использовались нулевые сэмплы : Да
Интерфейс : Встроенный Win32-интерфейс для Win NT/2000

Выходной формат : Пользовательский кодировщик
Выбранный битрейт : 896 kBit/s
Качество : Высокий
Добавление ID3-тега : Нет
Утилита сжатия : C:\Program Files\FLAC Frontend\tools\flac.exe
Дополнительные параметры : -V -8 -T "Date=%year%" -T "Genre=%genre%" %source%

TOC извлечённого CD Трек | Старт | Длительность | Начальный сектор | Конечный сектор

1 | 0:00.00 | 1:54.62 | 0 | 8611
2 | 1:54.62 | 3:49.28 | 8612 | 25814
3 | 5:44.15 | 3:37.45 | 25815 | 42134
4 | 9:21.60 | 4:26.67 | 42135 | 62151
5 | 13:48.52 | 5:59.23 | 62152 | 89099
6 | 19:48.00 | 5:39.62 | 89100 | 114586
7 | 25:27.62 | 3:07.68 | 114587 | 128679
8 | 28:35.55 | 6:39.05 | 128680 | 158609
9 | 35:14.60 | 2:57.02 | 158610 | 171886
10 | 38:11.62 | 4:22.28 | 171887 | 191564
11 | 42:34.15 | 4:05.50 | 191565 | 209989
12 | 46:39.65 | 5:23.25 | 209990 | 234239
13 | 52:03.15 | 4:38.47 | 234240 | 255136
14 | 56:41.62 | 4:22.38 | 255137 | 274824
15 | 61:04.25 | 5:51.50 | 274825 | 301199
16 | 66:56.00 | 4:01.25 | 301200 | 319299
17 | 70:57.25 | 2:19.42 | 319300 | 329766

Характеристики диапазона извлечения и сообщения об ошибках

Выбранный диапазон Имя файла D:\EAC\Мои раздачи\Monique Haas plays Debussy & Ravel\CD1\Monique Haas - Debussy & Ravel - CD1.wav Пиковый уровень 96.8 %
Скорость извлечения 4.5 X
Качество диапазона 100.0 %
CRC теста BF0C744B
CRC копии BF0C744B
Копирование... OK

Ошибок не произошло


AccurateRip: сводка

Трек 1 : извлечено точно (доверие 2) B4205F7 (AR v2)
Трек 2 : извлечено точно (доверие 2) [143B13C6] (AR v2)
Трек 3 : извлечено точно (доверие 2) [4EC77140] (AR v2)
Трек 4 : извлечено точно (доверие 2) [5F022D43] (AR v2)
Трек 5 : извлечено точно (доверие 2) [6E61C8A5] (AR v2)
Трек 6 : извлечено точно (доверие 2) [5019023A] (AR v2)
Трек 7 : извлечено точно (доверие 2) [E1B5A37E] (AR v2)
Трек 8 : извлечено точно (доверие 2) [72844A34] (AR v2)
Трек 9 : извлечено точно (доверие 2) [783662FD] (AR v2)
Трек 10 : извлечено точно (доверие 2) [98BFD2F9] (AR v2)
Трек 11 : извлечено точно (доверие 2) [E23ADED8] (AR v2)
Трек 12 : извлечено точно (доверие 2) [5409DD38] (AR v2)
Трек 13 : извлечено точно (доверие 2) [8AC764AB] (AR v2)
Трек 14 : извлечено точно (доверие 2) [1A3527BA] (AR v2)
Трек 15 : извлечено точно (доверие 2) [D9E7E36A] (AR v2)
Трек 16 : извлечено точно (доверие 2) [3B076647] (AR v2)
Трек 17 : извлечено точно (доверие 2) [A8CE0EE2] (AR v2)

Все треки извлечены точно

Конец отчёта

==== Контрольная сумма отчёта AC5E509C24D29E2D2565B1F2377C98BEB60233F5511BE5D8AD7701A4F26023A9 ====

foobar2000 1.2 / Dynamic Range Meter 1.1.1
log date: 2015-06-26 10:24:33

Analyzed: Monique Haas / Debussy & Ravel - CD1

DR Peak RMS Duration Track

DR12 -1.75 dB -18.12 dB 1:55 01-Danse Bohemienne
DR12 -5.38 dB -21.02 dB 3:49 02-Deux Arabesques: No.1
DR13 -1.91 dB -19.70 dB 3:38 03-Arabesque No.2
DR16 -3.02 dB -24.86 dB 4:27 04-Reverie
DR14 -1.06 dB -20.68 dB 5:59 05-Ballade slave
DR12 -1.37 dB -17.86 dB 5:40 06-Tarentelle styrienne
DR13 -0.60 dB -17.82 dB 3:08 07-Valse romantique
DR14 -0.88 dB -20.99 dB 6:39 08-Nocturne
DR13 -0.28 dB -20.61 dB 2:57 09-Mazurka
DR13 -2.14 dB -19.98 dB 4:22 10-Suite Bergamasque: I. Prelude
DR11 -4.42 dB -19.62 dB 4:06 11-II. Menuet
DR14 -4.05 dB -24.35 dB 5:23 12-III. Clair de Lune
DR12 -5.01 dB -21.67 dB 4:39 13-IV. Passepied
DR12 -0.81 dB -18.18 dB 4:23 14-Pour le piano: I. Prelude
DR15 -2.72 dB -23.32 dB 5:52 15-II. Sarabande
DR12 -2.89 dB -18.22 dB 4:01 16-III. Toccata
DR12 -1.93 dB -21.61 dB 2:20 17-Hommage a Haydn

Number of tracks: 17
Official DR value: DR13

Samplerate: 44100 Hz
Channels: 2
Bits per sample: 16
Bitrate: 522 kbps
Codec: FLAC

Exact Audio Copy V1.0 beta 3 from 29. August 2011

Отчёт EAC об извлечении, выполненном 24. июня 2015, 19:14

Monique Haas / Debussy & Ravel - CD 2

Дисковод: Optiarc DVD RW AD-7260S Adapter: 0 ID: 1

Режим чтения : Достоверность
Использование точного потока : Да
Отключение кэша аудио : Да
Использование указателей C2 : Нет

Коррекция смещения при чтении : 48
Способность читать области Lead-in и Lead-out : Нет
Заполнение пропущенных сэмплов тишиной : Да
Удаление блоков с тишиной в начале и конце : Нет
При вычислениях CRC использовались нулевые сэмплы : Да
Интерфейс : Встроенный Win32-интерфейс для Win NT/2000

Выходной формат : Пользовательский кодировщик
Выбранный битрейт : 896 kBit/s
Качество : Высокий
Добавление ID3-тега : Нет
Утилита сжатия : C:\Program Files\FLAC Frontend\tools\flac.exe
Дополнительные параметры : -V -8 -T "Date=%year%" -T "Genre=%genre%" %source%

TOC извлечённого CD Трек | Старт | Длительность | Начальный сектор | Конечный сектор

1 | 0:00.00 | 5:21.47 | 0 | 24121
2 | 5:21.47 | 7:24.38 | 24122 | 57459
3 | 12:46.10 | 3:33.32 | 57460 | 73466
4 | 16:19.42 | 4:29.53 | 73467 | 93694
5 | 20:49.20 | 5:07.70 | 93695 | 116789
6 | 25:57.15 | 4:01.72 | 116790 | 134936
7 | 29:59.12 | 3:32.40 | 134937 | 150876
8 | 33:31.52 | 3:28.65 | 150877 | 166541
9 | 37:00.42 | 2:27.68 | 166542 | 177634
10 | 39:28.35 | 4:00.02 | 177635 | 195636
11 | 43:28.37 | 3:01.43 | 195637 | 209254
12 | 46:30.05 | 4:48.12 | 209255 | 230866
13 | 51:18.17 | 3:31.20 | 230867 | 246711
14 | 54:49.37 | 3:05.40 | 246712 | 260626
15 | 57:55.02 | 2:21.35 | 260627 | 271236
16 | 60:16.37 | 6:47.65 | 271237 | 301826
17 | 67:04.27 | 2:59.63 | 301827 | 315314
18 | 70:04.15 | 2:14.67 | 315315 | 325431
19 | 72:19.07 | 1:46.28 | 325432 | 333409

Характеристики диапазона извлечения и сообщения об ошибках

Выбранный диапазон Имя файла D:\EAC\Мои раздачи\Monique Haas plays Debussy & Ravel\CD2\Monique Haas - Debussy & Ravel - CD 2.wav Пиковый уровень 99.1 %
Скорость извлечения 4.5 X
Качество диапазона 99.9 %
CRC теста 4D6A974A
CRC копии 4D6A974A
Копирование... OK

Ошибок не произошло


AccurateRip: сводка

Трек 1 : извлечено точно (доверие 2) [5F4305DF] (AR v2)
Трек 2 : извлечено точно (доверие 2) 6AF0F9C (AR v2)
Трек 3 : извлечено точно (доверие 2) [F4D13A26] (AR v2)
Трек 4 : извлечено точно (доверие 2) [1F3A79AE] (AR v2)
Трек 5 : извлечено точно (доверие 2) [D47DCFC6] (AR v2)
Трек 6 : извлечено точно (доверие 2) [77E12AF9] (AR v2)
Трек 7 : извлечено точно (доверие 2) [AE8FFA36] (AR v2)
Трек 8 : извлечено точно (доверие 2) [847AAD4E] (AR v2)
Трек 9 : извлечено точно (доверие 2) [78CB8096] (AR v2)
Трек 10 : извлечено точно (доверие 2) [E7CFEEF5] (AR v2)
Трек 11 : извлечено точно (доверие 2) [12BF27B8] (AR v2)
Трек 12 : извлечено точно (доверие 2) [7DFB4CBC] (AR v2)
Трек 13 : извлечено точно (доверие 2) [94309AAE] (AR v2)
Трек 14 : извлечено точно (доверие 2) [33FC98D6] (AR v2)
Трек 15 : извлечено точно (доверие 2) [5F9F0EB6] (AR v2)
Трек 16 : извлечено точно (доверие 2) [47CCBB15] (AR v2)
Трек 17 : извлечено точно (доверие 2) EBAEA16 (AR v2)
Трек 18 : извлечено точно (доверие 2) 6F15829 (AR v2)
Трек 19 : извлечено точно (доверие 2) [7BF4A04D] (AR v2)

Все треки извлечены точно

Конец отчёта

==== Контрольная сумма отчёта 9813C057F14377374EB6100EF80BDFC2A983AD79A6745480C1FFF51D7BD56776 ====

foobar2000 1.2 / Dynamic Range Meter 1.1.1
log date: 2015-06-26 10:24:56

Analyzed: Monique Haas / Debussy & Ravel - CD 2

DR Peak RMS Duration Track

DR13 -3.76 dB -23.06 dB 5:22 01-Images - Serie I - I. Reflets dans l'eau
DR16 -0.07 dB -23.99 dB 7:25 02-II. Hommage a Rameau
DR12 -1.50 dB -19.75 dB 3:33 03-III. Mouvement
DR13 -5.82 dB -25.67 dB 4:30 04-Images - Serie II - I. Cloches a travers le feuilles
DR15 -8.60 dB -30.43 dB 5:08 05-II. Et la lune descend sur le temple qui fut
DR13 -2.06 dB -19.99 dB 4:02 06-III. Poissons d'or
DR15 -6.08 dB -27.11 dB 3:33 07-Preludes - Livre I - I. Danseuses de Delphes
DR16 -1.78 dB -26.88 dB 3:29 08-II. Voiles
DR14 -2.60 dB -23.26 dB 2:28 09-III. Le Vent dans la plaine
DR14 -6.51 dB -26.50 dB 4:00 10-IV. 'Les sons et les parfums tournent dans l'air du soir'
DR13 -1.46 dB -19.32 dB 3:02 11-V. Les Collines d'Anacapri
DR15 -12.92 dB -34.06 dB 4:48 12-VI. Des as sur la neige
DR12 -1.22 dB -18.30 dB 3:31 13-VII. Ce qu'a vu le vent d'Ouest
DR14 -9.25 dB -29.39 dB 3:06 14-VIII. La Fille aux cheveux de lin
DR14 -1.78 dB -21.57 dB 2:21 15-IX. La Serenade interrompue
DR14 -0.25 dB -20.50 dB 6:48 16-X. La Cathedrale engloutie
DR14 -4.42 dB -22.48 dB 3:00 17-XI. La Danse de Puck
DR12 -2.23 dB -19.77 dB 2:15 18-XII. Minstrels
DR12 -1.67 dB -19.51 dB 1:46 19-Le Petit Negre

Number of tracks: 19
Official DR value: DR14

Samplerate: 44100 Hz
Channels: 2
Bits per sample: 16
Bitrate: 484 kbps
Codec: FLAC

Exact Audio Copy V1.0 beta 3 from 29. August 2011

Отчёт EAC об извлечении, выполненном 24. июня 2015, 20:43

Monique Haas / Debussy & Ravel - CD3

Дисковод: Optiarc DVD RW AD-7260S Adapter: 0 ID: 1

Режим чтения : Достоверность
Использование точного потока : Да
Отключение кэша аудио : Да
Использование указателей C2 : Нет

Коррекция смещения при чтении : 48
Способность читать области Lead-in и Lead-out : Нет
Заполнение пропущенных сэмплов тишиной : Да
Удаление блоков с тишиной в начале и конце : Нет
При вычислениях CRC использовались нулевые сэмплы : Да
Интерфейс : Встроенный Win32-интерфейс для Win NT/2000

Выходной формат : Пользовательский кодировщик
Выбранный битрейт : 896 kBit/s
Качество : Высокий
Добавление ID3-тега : Нет
Утилита сжатия : C:\Program Files\FLAC Frontend\tools\flac.exe
Дополнительные параметры : -V -8 -T "Date=%year%" -T "Genre=%genre%" %source%

TOC извлечённого CD Трек | Старт | Длительность | Начальный сектор | Конечный сектор

1 | 0:00.00 | 3:12.02 | 0 | 14401
2 | 3:12.02 | 3:42.60 | 14402 | 31111
3 | 6:54.62 | 2:52.43 | 31112 | 44054
4 | 9:47.30 | 3:08.27 | 44055 | 58181
5 | 12:55.57 | 3:01.70 | 58182 | 71826
6 | 15:57.52 | 2:31.43 | 71827 | 83194
7 | 18:29.20 | 4:27.67 | 83195 | 103286
8 | 22:57.12 | 3:29.18 | 103287 | 118979
9 | 26:26.30 | 2:35.45 | 118980 | 130649
10 | 29:02.00 | 3:15.10 | 130650 | 145284
11 | 32:17.10 | 2:33.27 | 145285 | 156786
12 | 34:50.37 | 4:17.70 | 156787 | 176131
13 | 39:08.32 | 4:56.73 | 176132 | 198404
14 | 44:05.30 | 5:33.62 | 198405 | 223441
15 | 49:39.17 | 3:45.70 | 223442 | 240386
16 | 53:25.12 | 2:14.10 | 240387 | 250446
17 | 55:39.22 | 2:44.28 | 250447 | 262774
18 | 58:23.50 | 2:43.35 | 262775 | 275034
19 | 61:07.10 | 2:37.70 | 275035 | 286879
20 | 63:45.05 | 2:22.32 | 286880 | 297561
21 | 66:07.37 | 2:44.08 | 297562 | 309869

Характеристики диапазона извлечения и сообщения об ошибках

Выбранный диапазон Имя файла D:\EAC\Мои раздачи\Monique Haas plays Debussy & Ravel\CD3\Monique Haas - Debussy & Ravel - CD3.wav Пиковый уровень 99.4 %
Скорость извлечения 4.4 X
Качество диапазона 100.0 %
CRC теста CF92D2B1
CRC копии CF92D2B1
Копирование... OK

Ошибок не произошло


AccurateRip: сводка

Трек 1 : извлечено точно (доверие 2) [32787516] (AR v2)
Трек 2 : извлечено точно (доверие 2) [ECD1172A] (AR v2)
Трек 3 : извлечено точно (доверие 2) [3CAE6B3C] (AR v2)
Трек 4 : извлечено точно (доверие 2) [A381D33D] (AR v2)
Трек 5 : извлечено точно (доверие 2) [687ECFE1] (AR v2)
Трек 6 : извлечено точно (доверие 2) [EFA774CB] (AR v2)
Трек 7 : извлечено точно (доверие 2) [EE31E4D9] (AR v2)
Трек 8 : извлечено точно (доверие 2) DD22416 (AR v2)
Трек 9 : извлечено точно (доверие 2) [FCA01CF4] (AR v2)
Трек 10 : извлечено точно (доверие 2) [56136776] (AR v2)
Трек 11 : извлечено точно (доверие 2) [F0BAEAA5] (AR v2)
Трек 12 : извлечено точно (доверие 2) [93BFD2A7] (AR v2)
Трек 13 : извлечено точно (доверие 2) [3366A0CC] (AR v2)
Трек 14 : извлечено точно (доверие 2) [5DBA2878] (AR v2)
Трек 15 : извлечено точно (доверие 2) [CF6B5717] (AR v2)
Трек 16 : извлечено точно (доверие 2) [0C51E76C] (AR v2)
Трек 17 : извлечено точно (доверие 2) [D8BD1696] (AR v2)
Трек 18 : извлечено точно (доверие 2) [805A1363] (AR v2)
Трек 19 : извлечено точно (доверие 2) [90841A5D] (AR v2)
Трек 20 : извлечено точно (доверие 2) [7E70CAB1] (AR v2)
Трек 21 : извлечено точно (доверие 2) [87C68669] (AR v2)

Все треки извлечены точно

Конец отчёта

==== Контрольная сумма отчёта 6DAD4FA2C5BF9EC6813E170F95A16011EABA2DDCD5BCC175DD3341FBE121D644 ====

foobar2000 1.2 / Dynamic Range Meter 1.1.1
log date: 2015-06-26 10:25:01

Analyzed: Children's Corner / Debussy & Ravel - CD3

DR Peak RMS Duration Track

DR13 -1.88 dB -21.67 dB 2:14 16-Children's Corner - I. Docteur Gradus ad Parnassum
DR12 -10.33 dB -29.16 dB 2:44 17-II. Jimbo's Lullaby
DR15 -5.58 dB -24.42 dB 2:43 18-III. Serenade for the Doll
DR11 -6.45 dB -23.51 dB 2:38 19-IV. The Snow is Dancing
DR13 -10.28 dB -30.87 dB 2:22 20-V. The Little Shepherd
DR13 -0.90 dB -19.64 dB 2:44 21-VI. Golliwogg's Cake-walk

Number of tracks: 6
Official DR value: DR13

Samplerate: 44100 Hz
Channels: 2
Bits per sample: 16
Bitrate: 499 kbps
Codec: FLAC

Analyzed: Estampes / Debussy & Ravel - CD3

DR Peak RMS Duration Track

DR14 -0.42 dB -20.86 dB 4:57 13-Estampes - I. Pagodes
DR15 -0.04 dB -22.78 dB 5:34 14-II. La Soiree dans Grenade
DR12 -1.97 dB -18.00 dB 3:46 15-III. Jardins sous la pluie

Number of tracks: 3
Official DR value: DR13

Samplerate: 44100 Hz
Channels: 2
Bits per sample: 16
Bitrate: 499 kbps
Codec: FLAC

Analyzed: Preludes, Livre II / Debussy & Ravel - CD3

DR Peak RMS Duration Track

DR16 -1.97 dB -25.33 dB 3:12 01-Preludes - Livre II: I. Brouillards
DR16 -5.20 dB -28.84 dB 3:43 02-II. Feuilles mortes
DR15 -1.72 dB -21.65 dB 2:53 03-III. La Puerta del Vino
DR14 -4.00 dB -23.06 dB 3:08 04-IV. 'Les fees sont d'exquises danseuses'
DR12 -7.39 dB -25.39 dB 3:02 05-V. Bruyeres
DR13 -0.14 dB -19.19 dB 2:32 06-VI. General Lavine - eccentric
DR16 -3.59 dB -26.05 dB 4:28 07-VII. La Terrasse des audiences du clair de lune
DR12 -5.19 dB -23.46 dB 3:29 08-VIII. Ondine
DR13 -2.12 dB -20.18 dB 2:36 09-IX. Hommage a S. Pickwick Esq. P.P.M.P.C.
DR15 -10.71 dB -32.40 dB 3:15 10-X. Canope
DR13 -3.37 dB -21.95 dB 2:33 11-XI. Les tierces alternees
DR12 -1.45 dB -18.01 dB 4:18 12-XII. Feux d'artifice

Number of tracks: 12
Official DR value: DR14

Samplerate: 44100 Hz
Channels: 2
Bits per sample: 16
Bitrate: 499 kbps
Codec: FLAC

Exact Audio Copy V1.0 beta 3 from 29. August 2011

Отчёт EAC об извлечении, выполненном 25. июня 2015, 11:16

Monique Haas / Debussy & Ravel - CD4

Дисковод: Optiarc DVD RW AD-7260S Adapter: 0 ID: 1

Режим чтения : Достоверность
Использование точного потока : Да
Отключение кэша аудио : Да
Использование указателей C2 : Нет

Коррекция смещения при чтении : 48
Способность читать области Lead-in и Lead-out : Нет
Заполнение пропущенных сэмплов тишиной : Да
Удаление блоков с тишиной в начале и конце : Нет
При вычислениях CRC использовались нулевые сэмплы : Да
Интерфейс : Встроенный Win32-интерфейс для Win NT/2000

Выходной формат : Пользовательский кодировщик
Выбранный битрейт : 896 kBit/s
Качество : Высокий
Добавление ID3-тега : Нет
Утилита сжатия : C:\Program Files\FLAC Frontend\tools\flac.exe
Дополнительные параметры : -V -8 -T "Date=%year%" -T "Genre=%genre%" %source%

TOC извлечённого CD Трек | Старт | Длительность | Начальный сектор | Конечный сектор

1 | 0:00.00 | 2:52.00 | 0 | 12899
2 | 2:52.00 | 3:34.12 | 12900 | 28961
3 | 6:26.12 | 5:21.25 | 28962 | 53061
4 | 11:47.37 | 4:20.03 | 53062 | 72564
5 | 16:07.40 | 2:53.35 | 72565 | 85574
6 | 19:01.00 | 1:46.05 | 85575 | 93529
7 | 20:47.05 | 2:29.27 | 93530 | 104731
8 | 23:16.32 | 4:49.50 | 104732 | 126456
9 | 28:06.07 | 3:10.30 | 126457 | 140736
10 | 31:16.37 | 5:41.38 | 140737 | 166349
11 | 36:58.00 | 4:22.30 | 166350 | 186029
12 | 41:20.30 | 4:39.65 | 186030 | 207019
13 | 46:00.20 | 5:36.02 | 207020 | 232221
14 | 51:36.22 | 4:58.45 | 232222 | 254616
15 | 56:34.67 | 4:57.23 | 254617 | 276914
16 | 61:32.15 | 4:04.37 | 276915 | 295251
17 | 65:36.52 | 3:56.73 | 295252 | 313024

Характеристики диапазона извлечения и сообщения об ошибках

Выбранный диапазон Имя файла D:\EAC\Мои раздачи\Monique Haas plays Debussy & Ravel\CD4\Monique Haas - Debussy & Ravel - CD4.wav Пиковый уровень 99.3 %
Скорость извлечения 4.4 X
Качество диапазона 100.0 %
CRC теста 7728935E
CRC копии 7728935E
Копирование... OK

Ошибок не произошло


AccurateRip: сводка

Трек 1 : извлечено точно (доверие 2) [E83524D7] (AR v2)
Трек 2 : извлечено точно (доверие 2) [A5D1C847] (AR v2)
Трек 3 : извлечено точно (доверие 2) [58C9D42C] (AR v2)
Трек 4 : извлечено точно (доверие 2) [2AAAEE28] (AR v2)
Трек 5 : извлечено точно (доверие 2) [8C401DCE] (AR v2)
Трек 6 : извлечено точно (доверие 2) [58790D65] (AR v2)
Трек 7 : извлечено точно (доверие 2) [91DBBBF5] (AR v2)
Трек 8 : извлечено точно (доверие 2) [741EF809] (AR v2)
Трек 9 : извлечено точно (доверие 2) [05CF93BB] (AR v2)
Трек 10 : извлечено точно (доверие 2) [49FB6730] (AR v2)
Трек 11 : извлечено точно (доверие 2) [021B5AD1] (AR v2)
Трек 12 : извлечено точно (доверие 2) [1243E347] (AR v2)
Трек 13 : извлечено точно (доверие 2) [3AE24681] (AR v2)
Трек 14 : извлечено точно (доверие 2) [2BC998C1] (AR v2)
Трек 15 : извлечено точно (доверие 2) [5996063D] (AR v2)
Трек 16 : извлечено точно (доверие 2) [87890C05] (AR v2)
Трек 17 : извлечено точно (доверие 2) [68C39005] (AR v2)

Все треки извлечены точно

Конец отчёта

==== Контрольная сумма отчёта A453F7533285060E02A8EA13389A97A55ED169645546EC29C9CE3F1987FBE09F ====

foobar2000 1.2 / Dynamic Range Meter 1.1.1
log date: 2015-06-26 10:25:35

Analyzed: Monique Haas / Debussy & Ravel - CD4

DR Peak RMS Duration Track

DR11 -1.96 dB -17.72 dB 2:52 01-Etudes, Livre I - I. Pour les 'cinq doigts', d'apres Monsieur Czerny
DR11 -1.02 dB -16.54 dB 3:34 02-II. Pour les Tierces
DR13 -2.61 dB -22.68 dB 5:21 03-III. Pour les Quartes
DR13 -3.91 dB -22.16 dB 4:20 04-IV. Pour les Sixtes
DR11 -2.56 dB -16.75 dB 2:53 05-V. Pour les Octaves
DR11 -4.73 dB -19.63 dB 1:46 06-VI. Pour les huit doigts
DR11 -5.47 dB -20.65 dB 2:29 07-Etudes, Livre II - I. Pour les Degres chromatiques
DR12 -3.52 dB -20.51 dB 4:50 08-II. Pour les Agrements
DR13 -2.63 dB -19.69 dB 3:10 09-III. Pour les Notes repetees
DR17 -1.49 dB -25.56 dB 5:42 10-IV. Pour les Sonorites opposees
DR12 -1.38 dB -19.36 dB 4:22 11-V. Pour les Arpeges composes
DR12 -1.39 dB -19.03 dB 4:40 12-VI. Pour les Accords
DR11 -0.71 dB -15.39 dB 5:36 13-L'Isle joyeuse
DR15 -5.90 dB -26.86 dB 4:59 14-D'un cahier d'esquisses
DR11 -0.06 dB -16.96 dB 4:57 15-Masques
DR12 -2.48 dB -20.25 dB 4:04 16-La plus que lente
DR16 -2.22 dB -24.76 dB 3:57 17-Berceuse heroique

Number of tracks: 17
Official DR value: DR12

Samplerate: 44100 Hz
Channels: 2
Bits per sample: 16
Bitrate: 526 kbps
Codec: FLAC

Exact Audio Copy V1.0 beta 3 from 29. August 2011

Отчёт EAC об извлечении, выполненном 25. июня 2015, 15:58

Monique Haas / Debussy & Ravel - CD5

Дисковод: Optiarc DVD RW AD-7260S Adapter: 0 ID: 1

Режим чтения : Достоверность
Использование точного потока : Да
Отключение кэша аудио : Да
Использование указателей C2 : Нет

Коррекция смещения при чтении : 48
Способность читать области Lead-in и Lead-out : Нет
Заполнение пропущенных сэмплов тишиной : Да
Удаление блоков с тишиной в начале и конце : Нет
При вычислениях CRC использовались нулевые сэмплы : Да
Интерфейс : Встроенный Win32-интерфейс для Win NT/2000

Выходной формат : Пользовательский кодировщик
Выбранный битрейт : 896 kBit/s
Качество : Высокий
Добавление ID3-тега : Нет
Утилита сжатия : C:\Program Files\FLAC Frontend\tools\flac.exe
Дополнительные параметры : -V -8 -T "Date=%year%" -T "Genre=%genre%" %source%

TOC извлечённого CD Трек | Старт | Длительность | Начальный сектор | Конечный сектор

1 | 0:00.00 | 5:15.05 | 0 | 23629
2 | 5:15.05 | 4:53.05 | 23630 | 45609
3 | 10:08.10 | 8:30.25 | 45610 | 83884
4 | 18:38.35 | 6:45.22 | 83885 | 114281
5 | 25:23.57 | 5:59.38 | 114282 | 141244
6 | 31:23.20 | 5:40.10 | 141245 | 166754
7 | 37:03.30 | 7:10.32 | 166755 | 199036
8 | 44:13.62 | 6:28.13 | 199037 | 228149
9 | 50:42.00 | 1:44.67 | 228150 | 236016
10 | 52:26.67 | 2:02.50 | 236017 | 245216
11 | 54:29.42 | 1:51.65 | 245217 | 253606
12 | 56:21.32 | 2:09.50 | 253607 | 263331
13 | 58:31.07 | 1:33.03 | 263332 | 270309
14 | 60:04.10 | 2:41.67 | 270310 | 282451
15 | 62:46.02 | 3:12.08 | 282452 | 296859
16 | 65:58.10 | 3:56.70 | 296860 | 314629
17 | 69:55.05 | 3:26.70 | 314630 | 330149

Характеристики диапазона извлечения и сообщения об ошибках

Выбранный диапазон Имя файла D:\EAC\Мои раздачи\Monique Haas plays Debussy & Ravel\CD5\Monique Haas - Debussy & Ravel - CD5.wav Пиковый уровень 91.8 %
Скорость извлечения 4.4 X
Качество диапазона 99.9 %
CRC теста 2FBBAC45
CRC копии 2FBBAC45
Копирование... OK

Ошибок не произошло


AccurateRip: сводка

Трек 1 : извлечено точно (доверие 2) [D7B37E1D] (AR v2)
Трек 2 : извлечено точно (доверие 2) [3E2AA7AB] (AR v2)
Трек 3 : извлечено точно (доверие 2) [EB232351] (AR v2)
Трек 4 : извлечено точно (доверие 2) [A4A8124B] (AR v2)
Трек 5 : извлечено точно (доверие 2) [F6E260C4] (AR v2)
Трек 6 : извлечено точно (доверие 2) [792E940B] (AR v2)
Трек 7 : извлечено точно (доверие 2) [8C076DDC] (AR v2)
Трек 8 : извлечено точно (доверие 2) [673145B5] (AR v2)
Трек 9 : извлечено точно (доверие 2) [306D66AF] (AR v2)
Трек 10 : извлечено точно (доверие 2) [24349EA7] (AR v2)
Трек 11 : извлечено точно (доверие 2) [20571BFA] (AR v2)
Трек 12 : извлечено точно (доверие 2) [99E8F616] (AR v2)
Трек 13 : извлечено точно (доверие 2) [544FF34A] (AR v2)
Трек 14 : извлечено точно (доверие 2) [12DE5464] (AR v2)
Трек 15 : извлечено точно (доверие 2) [4AD35A13] (AR v2)
Трек 16 : извлечено точно (доверие 2) [84B6E3DF] (AR v2)
Трек 17 : извлечено точно (доверие 2) [2E25C2EB] (AR v2)

Все треки извлечены точно

Конец отчёта

==== Контрольная сумма отчёта 279F15EF5ADCFAB5985ED5CF747D6A68A061103E6B66B707A6B553834B5FEFCD ====

foobar2000 1.2 / Dynamic Range Meter 1.1.1
log date: 2015-06-26 10:25:56

Analyzed: Monique Haas / Debussy & Ravel - CD5

DR Peak RMS Duration Track

DR14 -0.95 dB -21.20 dB 5:15 01-Miroirs - I .Noctuelles
DR17 -4.01 dB -30.17 dB 4:53 02-II. Oiseaux tristes
DR13 -0.74 dB -18.87 dB 8:30 03-III. Une barque sur l'ocean
DR14 -1.26 dB -20.30 dB 6:45 04-IV. Alborada del gracioso
DR15 -4.67 dB -26.69 dB 6:00 05-V. La Vallee des cloches
DR13 -1.33 dB -20.35 dB 5:40 06-Jeux d'eau
DR15 -1.04 dB -22.40 dB 7:10 07-Pavane pour une infante defunte
DR13 -1.98 dB -20.04 dB 6:28 08-Menuet antique
DR15 -10.59 dB -29.80 dB 1:45 09-Prelude
DR14 -6.05 dB -25.34 dB 2:03 10-A la maniere de ... Chabrier
DR12 -0.86 dB -19.58 dB 1:52 11-A la maniere de ... Borodine
DR13 -5.74 dB -24.15 dB 2:10 12-Menuet sur le nom de Haydn
DR13 -11.17 dB -30.52 dB 1:33 13-Ma mere l'Oye - I. Pavane de la Belle au bois dormant
DR13 -5.36 dB -25.09 dB 2:42 14-II. Petit Poucet
DR14 -0.93 dB -20.71 dB 3:12 15-III. Laideronnette, Imperatrice des pagodes
DR15 -1.45 dB -23.63 dB 3:57 16-IV. Les Entretiens de la Belle et de la Bete
DR16 -0.90 dB -23.55 dB 3:27 17-V. Le Jardin feerique

Number of tracks: 17
Official DR value: DR14

Samplerate: 44100 Hz
Channels: 2
Bits per sample: 16
Bitrate: 512 kbps
Codec: FLAC

Exact Audio Copy V1.0 beta 3 from 29. August 2011

Отчёт EAC об извлечении, выполненном 25. июня 2015, 19:31

Monique Haas / Debussy & Ravel - CD6

Дисковод: Optiarc DVD RW AD-7260S Adapter: 0 ID: 1

Режим чтения : Достоверность
Использование точного потока : Да
Отключение кэша аудио : Да
Использование указателей C2 : Нет

Коррекция смещения при чтении : 48
Способность читать области Lead-in и Lead-out : Нет
Заполнение пропущенных сэмплов тишиной : Да
Удаление блоков с тишиной в начале и конце : Нет
При вычислениях CRC использовались нулевые сэмплы : Да
Интерфейс : Встроенный Win32-интерфейс для Win NT/2000

Выходной формат : Пользовательский кодировщик
Выбранный битрейт : 896 kBit/s
Качество : Высокий
Добавление ID3-тега : Нет
Утилита сжатия : C:\Program Files\FLAC Frontend\tools\flac.exe
Дополнительные параметры : -V -8 -T "Date=%year%" -T "Genre=%genre%" %source%

TOC извлечённого CD Трек | Старт | Длительность | Начальный сектор | Конечный сектор

1 | 0:00.00 | 3:17.57 | 0 | 14831
2 | 3:17.57 | 3:13.03 | 14832 | 29309
3 | 6:30.60 | 5:10.02 | 29310 | 52561
4 | 11:40.62 | 2:32.60 | 52562 | 64021
5 | 14:13.47 | 4:05.10 | 64022 | 82406
6 | 18:18.57 | 4:06.68 | 82407 | 100924
7 | 22:25.50 | 6:48.50 | 100925 | 131574
8 | 29:14.25 | 6:06.60 | 131575 | 159084
9 | 35:21.10 | 9:04.40 | 159085 | 199924
10 | 44:25.50 | 4:31.72 | 199925 | 220321
11 | 48:57.47 | 3:12.00 | 220322 | 234721
12 | 52:09.47 | 4:20.68 | 234722 | 254289
13 | 56:30.40 | 1:25.17 | 254290 | 260681
14 | 57:55.57 | 2:37.55 | 260682 | 272511
15 | 60:33.37 | 1:17.18 | 272512 | 278304
16 | 61:50.55 | 1:16.05 | 278305 | 284009
17 | 63:06.60 | 1:31.20 | 284010 | 290854
18 | 64:38.05 | 0:43.32 | 290855 | 294111
19 | 65:21.37 | 2:53.23 | 294112 | 307109
20 | 68:14.60 | 4:07.15 | 307110 | 325649

Характеристики диапазона извлечения и сообщения об ошибках

Выбранный диапазон Имя файла D:\EAC\Мои раздачи\Monique Haas plays Debussy & Ravel\CD6\Monique Haas - Debussy & Ravel - CD6.wav Пиковый уровень 95.1 %
Скорость извлечения 4.5 X
Качество диапазона 100.0 %
CRC теста 3D0B6420
CRC копии 3D0B6420
Копирование... OK

Ошибок не произошло


AccurateRip: сводка

Трек 1 : извлечено точно (доверие 2) [035E2E4C] (AR v2)
Трек 2 : извлечено точно (доверие 2) [3B50D7F3] (AR v2)
Трек 3 : извлечено точно (доверие 2) [33B28092] (AR v2)
Трек 4 : извлечено точно (доверие 2) [FE3248CE] (AR v2)
Трек 5 : извлечено точно (доверие 2) [54E69F3D] (AR v2)
Трек 6 : извлечено точно (доверие 2) [9A758F23] (AR v2)
Трек 7 : извлечено точно (доверие 2) [C0BFF5F4] (AR v2)
Трек 8 : извлечено точно (доверие 2) [6AF34EBB] (AR v2)
Трек 9 : извлечено точно (доверие 2) [3CC2BC37] (AR v2)
Трек 10 : извлечено точно (доверие 2) [7639FA88] (AR v2)
Трек 11 : извлечено точно (доверие 2) [5CC33053] (AR v2)
Трек 12 : извлечено точно (доверие 2) [3D012A10] (AR v2)
Трек 13 : извлечено точно (доверие 2) [70E00833] (AR v2)
Трек 14 : извлечено точно (доверие 2) [F7BA7961] (AR v2)
Трек 15 : извлечено точно (доверие 2) [019E93F2] (AR v2)
Трек 16 : извлечено точно (доверие 2) [0033D33F] (AR v2)
Трек 17 : извлечено точно (доверие 2) [3F220B02] (AR v2)
Трек 18 : извлечено точно (доверие 2) [907AC67D] (AR v2)
Трек 19 : извлечено точно (доверие 2) [884812F3] (AR v2)
Трек 20 : извлечено точно (доверие 2) [098DAC0C] (AR v2)

Все треки извлечены точно

Конец отчёта

==== Контрольная сумма отчёта 28EB6323E581D36716EFDCD57DFE5EEB01B937176A92FEA64DE97BBD83D2E0AF ====

foobar2000 1.2 / Dynamic Range Meter 1.1.1
log date: 2015-06-26 10:26:19

Analyzed: Monique Haas / Debussy & Ravel - CD6

DR Peak RMS Duration Track

DR13 -0.43 dB -16.94 dB 3:18 01-Le Tombeau de Couperin - I. Prelude
DR11 -6.31 dB -22.23 dB 3:13 02-II. Fugue
DR14 -1.34 dB -20.13 dB 5:10 03-III. Forlane
DR13 -1.08 dB -17.49 dB 2:33 04-IV. Rigaudon
DR16 -2.51 dB -23.91 dB 4:05 05-V. Menuet
DR11 -1.10 dB -15.94 dB 4:07 06-VI. Toccata
DR14 -1.10 dB -20.71 dB 6:49 07-Gaspard de la nuit - I. Ondine
DR16 -7.52 dB -29.69 dB 6:07 08-II. Le gibet
DR13 -1.79 dB -20.02 dB 9:05 09-III. Scarbo
DR12 -4.17 dB -22.84 dB 4:32 10-Sonatine - I. Modere
DR15 -3.16 dB -23.80 dB 3:12 11-II. Mouvement de menuet
DR12 -2.93 dB -20.51 dB 4:21 12-III. Anime
DR11 -1.10 dB -15.73 dB 1:25 13-Valses nobles et sentimentales - I. Modere
DR16 -3.84 dB -28.08 dB 2:38 14-II. Assez lent
DR11 -8.31 dB -23.62 dB 1:17 15-III. Modere
DR12 -5.39 dB -20.28 dB 1:16 16-IV. Assez anime
DR12 -8.91 dB -26.22 dB 1:31 17-V. Presque lent
DR12 -3.43 dB -21.02 dB 0:43 18-VI. Vif
DR12 -1.10 dB -17.30 dB 2:53 19-VII. Moins vif
DR15 -6.52 dB -26.84 dB 4:07 20-VIII. Epilogue

Number of tracks: 20
Official DR value: DR13

Samplerate: 44100 Hz
Channels: 2
Bits per sample: 16
Bitrate: 522 kbps
Codec: FLAC

Monique Haas plays Debussy & Ravel (2007) 6CD Box Set

All thanks to original releaser - Святогор Иванович


Passwordifneed: designol

DOWNLOAD LINKS
Buy Premium From My Links To Get Resumable Support & Max Speed & To Support Me

Rapidgator.net:
http://rapidgator.net/file/e2989d5ddaab6818c43b879e3c08f143/874hp.MonHaasDbussyRave1.flac.CD1.rar.html
http://rapidgator.net/file/a1a18730d2e6f62872f356c1675193dc/874hp.MonHaasDbussyRave1.flac.CD2.rar.html
http://rapidgator.net/file/9f622406c3f15e939dceaa2b0923e95f/874hp.MonHaasDbussyRave1.flac.CD3.rar.html
http://rapidgator.net/file/55eca3c01d4b0da82e98710896de9664/874hp.MonHaasDbussyRave1.flac.CD4.rar.html
http://rapidgator.net/file/d8f75016da77f964d6021a5049cdfdf1/874hp.MonHaasDbussyRave1.flac.CD5.rar.html
http://rapidgator.net/file/bf118d6af34b667117c223992dbaf1a7/874hp.MonHaasDbussyRave1.flac.CD6.rar.html
http://rapidgator.net/file/fe0c302800e7485ca7a07b506dc056b4/874hp.MonHaasDbussyRave1.mp3.CD1.rar.html
http://rapidgator.net/file/9c775c050c69f39fa32a918cb8363fd4/874hp.MonHaasDbussyRave1.mp3.CD2.rar.html
http://rapidgator.net/file/5d31c1be62c5f1fa362ad73f4a4601fb/874hp.MonHaasDbussyRave1.mp3.CD3.rar.html
http://rapidgator.net/file/077cd572dd12664f7dba186d62e47dde/874hp.MonHaasDbussyRave1.mp3.CD4.rar.html
http://rapidgator.net/file/08e58b93609b5093e0fe5626d54d8484/874hp.MonHaasDbussyRave1.mp3.CD5.rar.html
http://rapidgator.net/file/81e33ac5a168c42c143aa3a40da3b2ea/874hp.MonHaasDbussyRave1.mp3.CD6.rar.html

Uploaded.net:
http://uploaded.net/file/8q35f5q7/874hp.MonHaasDbussyRave1.flac.CD1.rar
http://uploaded.net/file/7fdnelxm/874hp.MonHaasDbussyRave1.flac.CD2.rar
http://uploaded.net/file/9munve9v/874hp.MonHaasDbussyRave1.flac.CD3.rar
http://uploaded.net/file/oo8odip5/874hp.MonHaasDbussyRave1.flac.CD4.rar
http://uploaded.net/file/y55mefkc/874hp.MonHaasDbussyRave1.flac.CD5.rar
http://uploaded.net/file/sfzk3gxf/874hp.MonHaasDbussyRave1.flac.CD6.rar
http://uploaded.net/file/dtaxelf6/874hp.MonHaasDbussyRave1.mp3.CD1.rar
http://uploaded.net/file/kbhu2dia/874hp.MonHaasDbussyRave1.mp3.CD2.rar
http://uploaded.net/file/9l9jpjjy/874hp.MonHaasDbussyRave1.mp3.CD3.rar
http://uploaded.net/file/i4mzzqvw/874hp.MonHaasDbussyRave1.mp3.CD4.rar
http://uploaded.net/file/3bcnltvx/874hp.MonHaasDbussyRave1.mp3.CD5.rar
http://uploaded.net/file/jjthg053/874hp.MonHaasDbussyRave1.mp3.CD6.rar

Uploadable.ch:
http://www.uploadable.ch/file/BHWKhuFneCbz/874hp.MonHaasDbussyRave1.flac.CD1.rar
http://www.uploadable.ch/file/TPfH8bP9c5NC/874hp.MonHaasDbussyRave1.flac.CD2.rar
http://www.uploadable.ch/file/2M9ScWJjNhAJ/874hp.MonHaasDbussyRave1.flac.CD3.rar
http://www.uploadable.ch/file/Rr7XbmePmPDN/874hp.MonHaasDbussyRave1.flac.CD4.rar
http://www.uploadable.ch/file/u8kr6X2P7m6C/874hp.MonHaasDbussyRave1.flac.CD5.rar
http://www.uploadable.ch/file/bFUdkpJUB6a3/874hp.MonHaasDbussyRave1.flac.CD6.rar
http://www.uploadable.ch/file/x4QbSA7R6swG/874hp.MonHaasDbussyRave1.mp3.CD1.rar
http://www.uploadable.ch/file/qQcfZH35VQCz/874hp.MonHaasDbussyRave1.mp3.CD2.rar
http://www.uploadable.ch/file/Hm2RazKZf4Ma/874hp.MonHaasDbussyRave1.mp3.CD3.rar
http://www.uploadable.ch/file/AerYetqHaMmG/874hp.MonHaasDbussyRave1.mp3.CD4.rar
http://www.uploadable.ch/file/cn2kQCb3AAKj/874hp.MonHaasDbussyRave1.mp3.CD5.rar
http://www.uploadable.ch/file/SgPrxu88465p/874hp.MonHaasDbussyRave1.mp3.CD6.rar

Links are Interchangeable - No Password - Single Extraction
Direct Download

Tags: Monique, Debussy

Monique Haas plays Debussy & Ravel (2007) 6CD Box Set Download via Hotfile Rapidshare Fileserve Megaupload & FileSonic, Monique Haas plays Debussy & Ravel (2007) 6CD Box Set free torrent downloads included crack, serial, keygen.Monique Haas plays Debussy & Ravel (2007) 6CD Box Set Fast Download via Rapidshare Hotfile Fileserve Filesonic Megaupload, Monique Haas plays Debussy & Ravel (2007) 6CD Box Set Torrents and Emule Download or anything related.
Leave a Comment
Your Name:
E-Mail:
Add Comments:

Enter Code: