Natasha Barrett - Kraftfelt (2006)

Download Now

Natasha Barrett - Kraftfelt (2006)

Natasha Barrett - Kraftfelt (2006)
Classical/21st century | FLAC lossless | cuesheets+log | covers+booklet | 58m36s | 310mb
Label: Norsk Komponist Forening | cat. no. ACD 5037

"Natasha Barrett (1972) began working seriously with electroacoustic composition during a master's degree in analysis and composition at Birmingham University, UK. This study gave her the opportunity to work with BEAST (Birmingham Electroacoustic Sound Theatre), and has greatly influenced her current work in terms of the spatio-musical potential of sound and performance. In 1998 she was awarded a doctoral degree in composition, supervised by Denis Smalley. The Humanities section of the British Academy funded both degrees. In the same year, a grant from the research council of Norway enabled a composer residence at NoTAM. Since this time she has been active as a composer and teacher, and in the performance of electroacoustic music in Norway and abroad.
Her compositional output consists of works for instruments and live electronics, sound installations, dance, theatre, and animation projects, but all activity is rooted in her acousmatic composition, which features most strongly amongst her work. Projects are frequently commissioned from international organisations, and her work has received awards from amongst others: Noroit-Leonce Petitot (Arras, France, 2002 & 1998), Bourges International Electroacoustic Music Awards (France 2001, 1998 & 1995), Concours Scrime, (France 2000), International Electroacoustic Creation Competition of Ciberart (Italy 2000), Concours Luigi Russolo (Italy 1995 & 1998), Prix Ars Electronica (Linz, Austria 1998). Her work is available on empreintes DIGITALes (www. electrocd.com), Cultures electroniques/Mnemosyne Musique Media, CDCM/Centaur, Computer Music Journal Sound Anthology, Prix Noroit, and Aurora labels."


Tracks:

01. ...fetters... [0:14:56.37]
02. Prince Prospero's Party [0:16:05.02]
03. Exploratio Invisibilis [0:27:35.14]

Performer:

N/A

Exact Audio Copy V1.0 beta 3 from 29. August 2011

EAC extraction logfile from 23. June 2015, 19:07

Natascha Barrett / Kraftfelt

Used drive : TSSTcorpCDDVDW SH-216AB Adapter: 1 ID: 0

Read mode : Secure
Utilize accurate stream : Yes
Defeat audio cache : Yes
Make use of C2 pointers : No

Read offset correction

: 6
Overread into Lead-In and Lead-Out : No
Fill up missing offset samples with silence : Yes
Delete leading and trailing silent blocks : No
Null samples used in CRC calculations : Yes
Used interface
: Installed external ASPI interface
Gap handling
: Appended to previous track

Used output format : User Defined Encoder
Selected bitrate : 768 kBit/s
Quality : High
Add ID3 tag : No
Command line compressor : C:\Program Files (x86)\Exact Audio Copy\FLAC\FLAC.EXE
Additional command line options : -6 -V -T "ARTIST=%artist%" -T "TITLE=%title%" -T "ALBUM=%albumtitle%" -T "DATE=%year%" -T "TRACKNUMBER=%tracknr%" -T "GENRE=%genre%" -T "COMMENT=%comment%" -T "BAND=%albuminterpret%" -T "ALBUMARTIST=%albuminterpret%" -T "COMPOSER=%composer%" %haslyrics%--tag-from-file=LYRICS="%lyricsfile%"%haslyrics% -T "DISCNUMBER=%cdnumber%" -T "TOTALDISCS=%totalcds%" -T "TOTALTRACKS=%numtracks%" %hascover%--picture="%coverfile%"%hascover% %source% -o %dest%

TOC of the extracted CD Track | Start | Length | Start sector | End sector
--1 | 0:00.00 | 14:56.28 | 0 | 67227 2 | 14:56.28 | 16:05.02 | 67228 | 139604 3 | 31:01.30 | 27:35.11 | 139605 | 263740

Track 1 Filename C:\Users\astarte\03. POST\Barrett, Natasha - Kraftfelt\cd\01. ...fetters....wav Pre-gap length 0:00:02.00 Peak level 89.1 %
Extraction speed 4.8 X
Track quality 99.9 %
Copy CRC EE91E9A5
Accurately ripped (confidence 1) [09AF4B3E] (AR v2)
Copy OK

Track 2 Filename C:\Users\astarte\03. POST\Barrett, Natasha - Kraftfelt\cd\02. Prince Prospero's Party.wav Pre-gap length 0:00:09.74 Peak level 99.9 %
Extraction speed 2.9 X
Track quality 100.0 %
Copy CRC ACE3B698
Accurately ripped (confidence 1) [21B557C3] (AR v2)
Copy OK

Track 3 Filename C:\Users\astarte\03. POST\Barrett, Natasha - Kraftfelt\cd\03. Exploratio Invisibilis.wav Pre-gap length 0:00:09.62 Peak level 99.6 %
Extraction speed 3.6 X
Track quality 100.0 %
Copy CRC F8F73463
Accurately ripped (confidence 1) [4992B509] (AR v2)
Copy OK

All tracks accurately ripped

No errors occurred

End of status report

==== Log checksum DBEEBEF229059C36FEB196220305C3BB894B4DC353420899B12E1578F250ED52 ====
DOWNLOAD LINKS
Buy Premium From My Links To Get Resumable Support & Max Speed & To Support Me


Links are Interchangeable - No Password - Single Extraction
Direct Download

Tags: Natasha, Barrett, Kraftfelt

Natasha Barrett - Kraftfelt (2006) Download via Hotfile Rapidshare Fileserve Megaupload & FileSonic, Natasha Barrett - Kraftfelt (2006) free torrent downloads included crack, serial, keygen.Natasha Barrett - Kraftfelt (2006) Fast Download via Rapidshare Hotfile Fileserve Filesonic Megaupload, Natasha Barrett - Kraftfelt (2006) Torrents and Emule Download or anything related.
Leave a Comment
Your Name:
E-Mail:
Add Comments:

Enter Code: