Scott Henderson - Vibe Station (2015)

Download Now

Scott Henderson - Vibe Station (2015)

Scott Henderson - Vibe Station (2015)
EAC | Flac(Image) + Cue + Log & MP3 CBR 320Kbps
Self-released | ~ 434 or 165 Mb | Scans Included
Jazz-Funk / Fusion

"Textures, layers, grooves, CHOPS...it's all here. Scott's melodic voice and tone stand out. Carlton and Hertz stand confidently along side any of Scott's other rhythm sections. Icing on the cake is the album's SOUND!!! Fans of Scott's more fusion oriented work (such as myself) will be pleased with Vibe Station. Awesome modern Strat sound in a monster power-trio. Five stars..."


Tracklist:

01. Church Of Xotic Dance 07:20
02. Sphinx 08:59
03. Vibe Station 07:10
04. Manic Carpet 07:25
05. Calhoun 08:42
06. The Covered Head 06:56
07. Festival Of Ghosts 08:40
08. Dew Wut? 06:59
09. Chelsea Bridge 05:41

Musicians:

Scott Henderson - Electric Guitar
Travis Carlton - Bass
Alan Hertz - Drums


Exact Audio Copy V1.0 beta 6 from 9. April 2015

EAC extraction logfile from 20. June 2015, 21:07

Scott Henderson / Vibe Station

Used drive : Optiarc DVD RW AD-5280S Adapter: 1 ID: 1

Read mode : Secure
Utilize accurate stream : Yes
Defeat audio cache : Yes
Make use of C2 pointers : No

Read offset correction

: 48
Overread into Lead-In and Lead-Out : No
Fill up missing offset samples with silence : Yes
Delete leading and trailing silent blocks : No
Null samples used in CRC calculations : Yes
Used interface
: Native Win32 interface for Win NT & 2000

Used output format : User Defined Encoder
Selected bitrate : 1024 kBit/s
Quality : High
Add ID3 tag : No
Command line compressor : C:\Program Files\Exact Audio Copy\flac-1.3.1-win\win32\flac.exe
Additional command line options : -8 -V -T "ARTIST=%artist%" -T "TITLE=%title%" -T "ALBUM=%albumtitle%" -T "DATE=%year%" -T "TRACKNUMBER=%tracknr%" -T "GENRE=%genre%" -T "COMMENT=%comment%" %source% -o %dest%

TOC of the extracted CD Track | Start | Length | Start sector | End sector
--1 | 0:00.00 | 7:20.64 | 0 | 33063 2 | 7:20.64 | 8:59.16 | 33064 | 73504 3 | 16:20.05 | 7:10.31 | 73505 | 105785 4 | 23:30.36 | 7:25.22 | 105786 | 139182 5 | 30:55.58 | 8:42.30 | 139183 | 178362 6 | 39:38.13 | 6:56.71 | 178363 | 209633 7 | 46:35.09 | 8:40.56 | 209634 | 248689 8 | 55:15.65 | 6:59.47 | 248690 | 280161 9 | 62:15.37 | 5:41.64 | 280162 | 305800

Range status and errors

Selected range Filename C:\Sket4er\Scott Henderson - Vibe Station 2015 flac\Scott Henderson - Vibe Station.wav Peak level 98.8 %
Extraction speed 4.3 X
Range quality 100.0 %
Test CRC D83CEEC5
Copy CRC D83CEEC5
Copy OK

No errors occurred


AccurateRip summary

Track 1 not present in database
Track 2 not present in database
Track 3 not present in database
Track 4 not present in database
Track 5 not present in database
Track 6 not present in database
Track 7 not present in database
Track 8 not present in database
Track 9 not present in database

None of the tracks are present in the AccurateRip database

End of status report

- CUETools DB Plugin V2.1.6

[CTDB TOCID: obfh2Q6OZtEHGE27u.sT.lA5jT0-] found
Submit result: obfh2Q6OZtEHGE27u.sT.lA5jT0- has been confirmed
Track | CTDB Status
1 | (5/5) Accurately ripped
2 | (5/5) Accurately ripped
3 | (5/5) Accurately ripped
4 | (5/5) Accurately ripped
5 | (4/5) Accurately ripped
6 | (5/5) Accurately ripped
7 | (5/5) Accurately ripped
8 | (5/5) Accurately ripped
9 | (5/5) Accurately ripped

==== Log checksum 768A978244D426E995E8C8FCE2C957021EC1C3A081838B888BD5FD498AE1A065 ====

foobar2000 1.2.9 / Dynamic Range Meter 1.1.1
log date: 2015-06-26 22:43:27

Analyzed: Scott Henderson / Vibe Station

DR Peak RMS Duration Track

DR10 -0.10 dB -12.61 dB 7:21 01-Church Of Xotic Dance
DR10 -0.10 dB -11.84 dB 8:59 02-Sphinx
DR10 -0.10 dB -12.17 dB 7:10 03-Vibe Station
DR9 -0.10 dB -12.13 dB 7:25 04-Manic Carpet
DR10 -0.10 dB -12.72 dB 8:42 05-Calhoun
DR10 -0.10 dB -12.42 dB 6:57 06-The Covered Head
DR10 -0.10 dB -12.79 dB 8:41 07-Festival Of Ghosts
DR11 -0.10 dB -12.75 dB 7:00 08-Dew Wut?
DR12 -0.10 dB -15.03 dB 5:42 09-Chelsea Bridge

Number of tracks: 9
Official DR value: DR10

Samplerate: 44100 Hz
Channels: 2
Bits per sample: 16
Bitrate: 856 kbps
Codec: FLAC

[CUETools log; Date: 20.06.2015 21:09:20; Version: 2.1.4]
HDCD: peak extend: none, transient filter: none, gain: none
[CTDB TOCID: obfh2Q6OZtEHGE27u.sT.lA5jT0-] found.
Track | CTDB Status
1 | (6/6) Accurately ripped
2 | (6/6) Accurately ripped
3 | (6/6) Accurately ripped
4 | (6/6) Accurately ripped
5 | (5/6) Accurately ripped
6 | (6/6) Accurately ripped
7 | (6/6) Accurately ripped
8 | (6/6) Accurately ripped
9 | (6/6) Accurately ripped
[AccurateRip ID: 0018052c-00afa9f3-840fed09] disk not present in database.

Track Peak [ CRC32 ] [W/O NULL] [ LOG ]
-- 98,8 [D83CEEC5] [1BCB6E91] CRC32
01 98,8 [7E90C1A0] [6B471790]
02 98,8 [D219B642] [CDBF50D3]
03 98,8 [87B8E658] [88DD270A]
04 98,8 [72DE99C7] [5E5756F6]
05 98,8 [F58D064E] [5FFD35BE]
06 98,8 [48A90BDE] [F1CE4179]
07 98,8 [185FFE5D] [8865ECBE]
08 98,8 [1F472552] [6D4C26B8]
09 98,8 [D94094B3] [83BB448C]

Scott Henderson - Vibe Station (2015)

DOWNLOAD:
Buy Premium To Support Me & Get Resumable Support & Max Speed


Links are Interchangeable - No Password
Direct Download

Tags: Henderson, Station

Scott Henderson - Vibe Station (2015) Download via Hotfile Rapidshare Fileserve Megaupload & FileSonic, Scott Henderson - Vibe Station (2015) free torrent downloads included crack, serial, keygen.Scott Henderson - Vibe Station (2015) Fast Download via Rapidshare Hotfile Fileserve Filesonic Megaupload, Scott Henderson - Vibe Station (2015) Torrents and Emule Download or anything related.
Leave a Comment
Your Name:
E-Mail:
Add Comments:

Enter Code: