Bob Dylan - New Morning (1970)

Download Now

Bob Dylan - New Morning (1970)

Bob Dylan - New Morning (1970)
Rock | 1cd | EAC Rip | Flac + Cue + Log | covers
Columbia, 88697347002 | rem: 2009 | 320Mb

Dylan rushed out New Morning in the wake of the commercial and critical disaster Self Portrait, and the difference between the two albums suggests that its legendary failed predecessor was intentionally flawed. New Morning expands on the laid-back country-rock of John Wesley Harding and Nashville Skyline by adding a more pronounced rock & roll edge.
While there are only a couple of genuine classics on the record ("If Not for You," "One More Weekend"), the overall quality is quite high, and many of the songs explore idiosyncratic routes Dylan had previously left untouched, whether it's the jazzy experiments of "Sign on the Window" and "Winterlude," the rambling spoken word piece "If Dogs Run Free" or the Elvis parable "Went to See the Gypsy." Such offbeat songs make New Morning a charming, endearing record. ~Allmusic

Track listing
01. If Not for You (2:42)
02. Day of the Locusts (4:00)
03. Time Passes Slowly (2:36)
04. Went to See the Gypsy (2:52)
05. Winterlude (2:23)
06. If Dogs Run Free (3:40)
07. New Morning (3:58)
08. Sign on the Window (3:41)
09. One More Weekend (3:11)
10. The Man in Me (3:09)
11. Three Angels (2:08)
12. Father of Night (1:32)
~ (35:51)

Exact Audio Copy V0.99 prebeta 5 from 4. May 2009

EAC extraction logfile from 27. April 2013, 18:52

Bob Dylan t / New Morning

Used drive : PLEXTOR DVDR PX-L890SA Adapter: 1 ID: 0

Read mode : Secure
Utilize accurate stream : Yes
Defeat audio cache : Yes
Make use of C2 pointers : No

Read offset correction

: 6
Overread into Lead-In and Lead-Out : No
Fill up missing offset samples with silence : Yes
Delete leading and trailing silent blocks : No
Null samples used in CRC calculations : Yes
Used interface
: Native Win32 interface for Win NT & 2000

Used output format : User Defined Encoder
Selected bitrate : 768 kBit/s
Quality : High
Add ID3 tag : No
Command line compressor : d:\Program Files\Exact Audio Copy\FLAC\FLAC.EXE
Additional command line options : -T "DATE=%y" -T "GENRE=%m" -8 -V %s

TOC of the extracted CD Track | Start | Length | Start sector | End sector
--1 | 0:00.00 | 2:42.20 | 0 | 12169 2 | 2:42.20 | 4:00.36 | 12170 | 30205 3 | 6:42.56 | 2:35.40 | 30206 | 41870 4 | 9:18.21 | 2:51.42 | 41871 | 54737 5 | 12:09.63 | 2:22.71 | 54738 | 65458 6 | 14:32.59 | 3:40.33 | 65459 | 81991 7 | 18:13.17 | 3:58.19 | 81992 | 99860 8 | 22:11.36 | 3:40.44 | 99861 | 116404 9 | 25:52.05 | 3:10.59 | 116405 | 130713
10 | 29:02.64 | 3:08.38 | 130714 | 144851
11 | 32:11.27 | 2:07.61 | 144852 | 154437
12 | 34:19.13 | 1:31.47 | 154438 | 161309

Range status and errors

Selected range Filename H:\MUSIC\COLLECTION\Bob Dylan\1970 New Morning\Bob Dylan - New Morning.wav Peak level 94.1 %
Range quality 99.9 %
Test CRC 45CFB05E
Copy CRC 45CFB05E
Copy OK

No errors occurred


AccurateRip summary

Track 1 accurately ripped (confidence 31) [61242BFC]
Track 2 accurately ripped (confidence 31) [C3607446]
Track 3 accurately ripped (confidence 31) [6778D962]
Track 4 accurately ripped (confidence 31) D7E80F7
Track 5 accurately ripped (confidence 31) [E4EBE4F3]
Track 6 accurately ripped (confidence 31) [47AEF76D]
Track 7 accurately ripped (confidence 31) [D10ACC82]
Track 8 accurately ripped (confidence 31) [9608CF76]
Track 9 accurately ripped (confidence 31) [1ED98C19]
Track 10 accurately ripped (confidence 31) [6000D8CF]
Track 11 accurately ripped (confidence 31) [8D80A687]
Track 12 accurately ripped (confidence 31) [0065A07A]

All tracks accurately ripped

End of status report

[CUETools log; Date: 2015.06.24. 15:09:48; Version: 2.1.5]
[CTDB TOCID: vNuXS2Eexs9WsBVv2d1TR5Z_Mjc-] found.
Track | CTDB Status
1 | (104/104) Accurately ripped
2 | (104/104) Accurately ripped
3 | (104/104) Accurately ripped
4 | (104/104) Accurately ripped
5 | (104/104) Accurately ripped
6 | (103/104) Accurately ripped
7 | (104/104) Accurately ripped
8 | (104/104) Accurately ripped
9 | (104/104) Accurately ripped
10 | (104/104) Accurately ripped
11 | (104/104) Accurately ripped
12 | (104/104) Accurately ripped
[AccurateRip ID: 0010b180-009bf282-8f08660c] found.
Track [ CRC | V2 ] Status
01 [61242bfc|9d8790c0] (032+041/216) Accurately ripped
02 [c3607446|6501c5bf] (032+040/213) Accurately ripped
03 [6778d962|d0964a4c] (032+040/214) Accurately ripped
04 d7e80f7|b2a52d51 (032+041/215) Accurately ripped
05 [e4ebe4f3|5d9663f0] (032+040/215) Accurately ripped
06 [47aef76d|94cc45f1] (032+041/216) Accurately ripped
07 [d10acc82|d609df0d] (032+040/215) Accurately ripped
08 [9608cf76|05bf0e77] (032+041/214) Accurately ripped
09 [1ed98c19|b9347760] (032+041/215) Accurately ripped
10 [6000d8cf|510011e8] (032+040/217) Accurately ripped
11 [8d80a687|65e9a2a0] (032+041/214) Accurately ripped
12 [0065a07a|53d8a55c] (032+041/215) Accurately ripped
Offsetted by -641:
01 [ac54d363] (024/216) Accurately ripped
02 [9c187be7] (024/213) Accurately ripped
03 [d8626246] (025/214) Accurately ripped
04 [95765d1d] (025/215) Accurately ripped
05 [1705788f] (025/215) Accurately ripped
06 [a8ce8ad9] (025/216) Accurately ripped
07 [8da9378c] (025/215) Accurately ripped
08 [2280d2e1] (025/214) Accurately ripped
09 [ad9b4379] (025/215) Accurately ripped
10 [584f47ea] (026/217) Accurately ripped
11 [02dd2b3b] (025/214) Accurately ripped
12 [6cf562f1] (025/215) Accurately ripped
Offsetted by -635:
01 [95a96ff9] (015/216) Accurately ripped
02 [07e53d21] (014/213) Accurately ripped
03 [538888ee] (014/214) Accurately ripped
04 [f67c6e39] (014/215) Accurately ripped
05 [2bb826e7] (014/215) Accurately ripped
06 [70626a51] (014/216) Accurately ripped
07 [e5c14b50] (014/215) Accurately ripped
08 [aef7835f] (014/214) Accurately ripped
09 a3f9739 (014/215) Accurately ripped
10 [dbc6c248] (015/217) Accurately ripped
11 [a91a9b03] (014/214) Accurately ripped
12 [c5cd4d27] (013/215) Accurately ripped
Offsetted by -737:
01 [170b0a03] (000/216) No match (V2 was not tested)
02 [df4c6847] (000/213) No match (V2 was not tested)
03 [25fff7c6] (000/214) No match (V2 was not tested)
04 [85154b5d] (000/215) No match (V2 was not tested)
05 [cbda930f] (000/215) No match (V2 was not tested)
06 [2f909359] (000/216) No match (V2 was not tested)
07 [0c27fb4c] (000/215) No match (V2 was not tested)
08 [5b15cb01] (000/214) No match (V2 was not tested)
09 [e3560779] (000/215) No match (V2 was not tested)
10 [20d7a20a] (000/217) No match (V2 was not tested)
11 [9f062ebb] (000/214) No match (V2 was not tested)
12 [df76bf91] (000/215) No match (V2 was not tested)
Offsetted by -647:
01 [c30036cd] (000/216) No match (V2 was not tested)
02 [304bbaad] (000/213) No match (V2 was not tested)
03 [5d3c3b9e] (000/214) No match (V2 was not tested)
04 [34704c01] (000/215) No match (V2 was not tested)
05 [0252ca37] (000/215) No match (V2 was not tested)
06 [e13aab61] (000/216) No match (V2 was not tested)
07 [359123c8] (000/215) No match (V2 was not tested)
08 [960a2263] (000/214) No match (V2 was not tested)
09 [a0f6efb9] (000/215) No match (V2 was not tested)
10 [d4d7cd8c] (000/217) No match (V2 was not tested)
11 [5c9fbb73] (000/214) No match (V2 was not tested)
12 [141d78bb] (000/215) No match (V2 was not tested)

Track Peak [ CRC32 ] [W/O NULL] [ LOG ]
-- 94,1 [45CFB05E] [FABDA653] CRC32
01 93,2 [2B2DAACD] [F1575512]
02 93,8 [AF977DA0] [514F9F48]
03 93,2 [240D558D] [107ECF15]
04 93,2 [55E79131] [C338923C]
05 93,2 98507C1 7BEADD2
06 93,2 [6DD5D6B0] [7D55D6A6]
07 94,1 [1051AFE2] [1A7BDEA4]
08 93,2 [849BB8A1] [C3E425CA]
09 93,2 [DF7FC1E1] [E263777A]
10 93,8 [A4770D93] CE7B3D8
11 93,2 [C7210815] [6CAC0DB5]
12 93,2 [DEAE9A5A] [4C355ED3]

Thx to snakesharmer

passwordifneed: asd
DOWNLOAD LINKS
Buy Premium From My Links To Get Resumable Support & Max Speed & To Support Me


Links are Interchangeable - No Password - Single Extraction
Direct Download

Tags: Morning

Bob Dylan - New Morning (1970) Download via Hotfile Rapidshare Fileserve Megaupload & FileSonic, Bob Dylan - New Morning (1970) free torrent downloads included crack, serial, keygen.Bob Dylan - New Morning (1970) Fast Download via Rapidshare Hotfile Fileserve Filesonic Megaupload, Bob Dylan - New Morning (1970) Torrents and Emule Download or anything related.
Leave a Comment
Your Name:
E-Mail:
Add Comments:

Enter Code: