T. Rex - The Singles As & Bs (2002)

Download Now

T. Rex - The Singles As & Bs (2002)

T. Rex - The Singles As & Bs (2002) 2CD
2CD | EAC Rip | FLAC (Img) + Cue + Log ~ 1,10 Gb | MP3 CBR320 ~ 396 Mb
Scans Included (JPG, 300 dpi) | RAR 5% Recovery
Glam Rock | Repertoire Records #REP 4993

"German compilation features all the T. Rex A-sides released between 1972 & 1978 on disc one & 28 B-sides on disc two, 16 page colour booklet. First, full disclosure is necessary as to what's missing. Ready? On this glorious double-CD collection, there isn't one track from T. Rex's Electric Warrior. That's right, "Bang a Gong," "Mambo Sun," and "Jeepster" are all absent. Why? Simple: it appears Warner is recalcitrant to license that wondrous album to anyone in any form. It turns out that this is simply a small complaint because none of the tracks from Electric Warrior should be separated from its full corpus anyway -- it is an album in the purest and more literal sense of the world. Getting to what is here, listeners do get tracks from that beautiful slab The Slider as well as Tanx, Light of Love , Bolan's Zip Gun, Dandy in the Underworld..."

Wiki | Discogs | All Music
***************

T. Rex - The Singles As & Bs (2002)

Track List CD1:

01. Telegram Sam [03:43]
02. Metal Guru [02:26]
03. Children Of The Revolution [02:29]
04. Solid Gold Easy Action [02:20]
05. 20th Century Boy [03:40]
06. The Groover [03:21]
07. Truck On (Tyke) [03:06]
08. Teenage Dream [05:48]
09. Think Zinc [03:22]
10. Light Of Love [03:15]
11. Zip Gun Boogie [03:20]
12. New York City [03:56]
13. Dreamy Lady [02:54]
14. Christmas Bop [03:39]
15. London Boys [02:21]
16. I Love To Boogie [02:14]
17. Laser Love [03:37]
18. To Know Him Is To Love Him [02:45]
19. The Soul Of My Suit [02:37]
20. Dandy In The Underworld [03:50]
21. Celebrate Summer [02:36]
22. Crimson Moon [03:22]

Exact Audio Copy V1.0 beta 4 from 7. December 2014

Отчёт EAC об извлечении, выполненном 30. июня 2015, 14:53

T. Rex / The Singles As & Bs

Дисковод: ASUS DRW-24F1ST a Adapter: 1 ID: 0

Режим чтения : Достоверность
Использование точного потока : Да
Отключение кэша аудио : Да
Использование указателей C2 : Нет

Коррекция смещения при чтении : 6
Способность читать области Lead-in и Lead-out : Нет
Заполнение пропущенных сэмплов тишиной : Да
Удаление блоков с тишиной в начале и конце : Нет
При вычислениях CRC использовались нулевые сэмплы : Да
Интерфейс : Встроенный Win32-интерфейс для Win NT/2000

Выходной формат : Пользовательский кодировщик
Выбранный битрейт : 128 kBit/s
Качество : Высокий
Добавление ID3-тега : Нет
Утилита сжатия : C:\Program Files\Exact Audio Copy\Flac\flac.exe
Дополнительные параметры : -V -8 -T "Date=%year%" -T "Genre=%genre%" %source%

TOC извлечённого CD Трек | Старт | Длительность | Начальный сектор | Конечный сектор

1 | 0:00.00 | 3:42.63 | 0 | 16712
2 | 3:42.63 | 2:25.03 | 16713 | 27590
3 | 6:07.66 | 2:28.64 | 27591 | 38754
4 | 8:36.55 | 2:19.39 | 38755 | 49218
5 | 10:56.19 | 3:39.12 | 49219 | 65655
6 | 14:35.31 | 3:20.27 | 65656 | 80682
7 | 17:55.58 | 3:05.55 | 80683 | 94612
8 | 21:01.38 | 5:47.16 | 94613 | 120653
9 | 26:48.54 | 3:21.18 | 120654 | 135746
10 | 30:09.72 | 3:14.36 | 135747 | 150332
11 | 33:24.33 | 3:19.08 | 150333 | 165265
12 | 36:43.41 | 3:55.29 | 165266 | 182919
13 | 40:38.70 | 2:53.22 | 182920 | 195916
14 | 43:32.17 | 3:38.72 | 195917 | 212338
15 | 47:11.14 | 2:20.56 | 212339 | 222894
16 | 49:31.70 | 2:13.70 | 222895 | 232939
17 | 51:45.65 | 3:36.29 | 232940 | 249168
18 | 55:22.19 | 2:44.33 | 249169 | 261501
19 | 58:06.52 | 2:36.16 | 261502 | 273217
20 | 60:42.68 | 3:49.67 | 273218 | 290459
21 | 64:32.60 | 2:35.69 | 290460 | 302153
22 | 67:08.54 | 3:21.06 | 302154 | 317234

Характеристики диапазона извлечения и сообщения об ошибках

Выбранный диапазон Имя файла C:\Users\Erik\Desktop\T. Rex - The Singles As & Bs (CD1).wav Пиковый уровень 100.0 %
Скорость извлечения 7.7 X
Качество диапазона 100.0 %
CRC теста 24A0774E
CRC копии 24A0774E
Копирование... OK

Ошибок не произошло


AccurateRip: сводка

Трек 1 : извлечено точно (доверие 4) [5447DB2B] (AR v2)
Трек 2 : извлечено точно (доверие 5) [A6F1B074] (AR v2)
Трек 3 : извлечено точно (доверие 5) [E8C6CEA4] (AR v2)
Трек 4 : извлечено точно (доверие 4) [7EFC98F3] (AR v2)
Трек 5 : извлечено точно (доверие 4) [3B73845D] (AR v2)
Трек 6 : извлечено точно (доверие 4) [18894EC3] (AR v2)
Трек 7 : извлечено точно (доверие 5) [312C8EB9] (AR v2)
Трек 8 : извлечено точно (доверие 4) [A579A9A0] (AR v2)
Трек 9 : извлечено точно (доверие 5) [1C47A924] (AR v2)
Трек 10 : извлечено точно (доверие 4) [AC05425A] (AR v2)
Трек 11 : извлечено точно (доверие 4) [1AD93CC5] (AR v2)
Трек 12 : извлечено точно (доверие 5) [E039F48A] (AR v2)
Трек 13 : извлечено точно (доверие 4) [4742EB1E] (AR v2)
Трек 14 : извлечено точно (доверие 5) [832D7E66] (AR v2)
Трек 15 : извлечено точно (доверие 5) [F9AB2E47] (AR v2)
Трек 16 : извлечено точно (доверие 5) [C6E51A06] (AR v2)
Трек 17 : извлечено точно (доверие 5) [07B758DF] (AR v2)
Трек 18 : извлечено точно (доверие 4) [94FD1903] (AR v2)
Трек 19 : извлечено точно (доверие 5) [D2046D9D] (AR v2)
Трек 20 : извлечено точно (доверие 4) E9CB4C4 (AR v2)
Трек 21 : извлечено точно (доверие 5) [F9869F85] (AR v2)
Трек 22 : извлечено точно (доверие 4) [24C4144A] (AR v2)

Все треки извлечены точно

Конец отчёта

- CUETools DB Plugin V2.1.4

[CTDB TOCID: 7CSJY_RHspEznf_9khCU1qjD8nw-] found
Submit result: 7CSJY_RHspEznf_9khCU1qjD8nw- has been confirmed
Track | CTDB Status
1 | (5/5) Accurately ripped
2 | (5/5) Accurately ripped
3 | (5/5) Accurately ripped
4 | (4/5) Accurately ripped
5 | (4/5) Accurately ripped
6 | (4/5) Accurately ripped
7 | (5/5) Accurately ripped
8 | (4/5) Accurately ripped
9 | (5/5) Accurately ripped
10 | (4/5) Accurately ripped
11 | (4/5) Accurately ripped
12 | (5/5) Accurately ripped
13 | (4/5) Accurately ripped
14 | (5/5) Accurately ripped
15 | (5/5) Accurately ripped
16 | (5/5) Accurately ripped
17 | (5/5) Accurately ripped
18 | (4/5) Accurately ripped
19 | (5/5) Accurately ripped
20 | (4/5) Accurately ripped
21 | (5/5) Accurately ripped
22 | (4/5) Accurately ripped

foobar2000 1.2.6 / Dynamic Range Meter 1.1.1
log date: 2015-07-01 02:33:42

Analyzed: T. Rex / The Singles As & Bs

DR Peak RMS Duration Track

DR7 -0.03 dB -8.91 dB 3:43 01-Telegram Sam
DR8 -0.14 dB -8.79 dB 2:25 02-Metal Guru
DR9 0.00 dB -9.68 dB 2:29 03-Children Of The Revolution
DR8 -0.14 dB -9.56 dB 2:20 04-Solid Gold Easy Action
DR8 -0.08 dB -9.00 dB 3:39 05-20th Century Boy
DR7 -0.14 dB -8.27 dB 3:20 06-The Groover
DR8 -0.14 dB -9.39 dB 3:06 07-Truck On (Tyke)
DR7 -0.04 dB -8.75 dB 5:47 08-Teenage Dream
DR8 -0.09 dB -8.99 dB 3:21 09-Think Zinc
DR8 -0.05 dB -8.98 dB 3:14 10-Light Of Love
DR7 -0.14 dB -7.94 dB 3:19 11-Zip Gun Boogie
DR7 -0.12 dB -8.51 dB 3:55 12-New York City
DR7 -0.11 dB -8.86 dB 2:53 13-Dreamy Lady
DR8 -0.06 dB -9.51 dB 3:39 14-Christmas Bop
DR7 -0.09 dB -8.68 dB 2:21 15-London Boys
DR9 -0.13 dB -11.11 dB 2:14 16-I Love To Boogie
DR8 -0.03 dB -9.10 dB 3:36 17-Laser Love
DR8 -0.14 dB -9.72 dB 2:44 18-To Know Him Is To Love Him
DR8 -0.14 dB -9.57 dB 2:36 19-The Soul Of My Suit
DR8 -0.07 dB -9.40 dB 3:50 20-Dandy In The Underworld
DR8 -0.12 dB -8.69 dB 2:36 21-Celebrate Summer
DR7 -0.08 dB -9.02 dB 3:21 22-Crimson Moon

Number of tracks: 22
Official DR value: DR8

Samplerate: 44100 Hz
Channels: 2
Bits per sample: 16
Bitrate: 986 kbps
Codec: FLAC

[CUETools log; Date: 01.07.2015 2:33:43; Version: 2.1.5]
[CTDB TOCID: 7CSJY_RHspEznf_9khCU1qjD8nw-] found.
Track | CTDB Status
1 | (6/6) Accurately ripped
2 | (6/6) Accurately ripped
3 | (6/6) Accurately ripped
4 | (5/6) Accurately ripped
5 | (5/6) Accurately ripped
6 | (5/6) Accurately ripped
7 | (6/6) Accurately ripped
8 | (5/6) Accurately ripped
9 | (6/6) Accurately ripped
10 | (5/6) Accurately ripped
11 | (5/6) Accurately ripped
12 | (6/6) Accurately ripped
13 | (5/6) Accurately ripped
14 | (6/6) Accurately ripped
15 | (6/6) Accurately ripped
16 | (6/6) Accurately ripped
17 | (6/6) Accurately ripped
18 | (5/6) Accurately ripped
19 | (6/6) Accurately ripped
20 | (5/6) Accurately ripped
21 | (6/6) Accurately ripped
22 | (5/6) Accurately ripped
[AccurateRip ID: 00383e5b-0385e5a3-2b108516] found.
Track [ CRC | V2 ] Status
01 [ebe84003|5447db2b] (2+4/6) Accurately ripped
02 [5bc97d91|a6f1b074] (2+5/7) Accurately ripped
03 [8090e392|e8c6cea4] (2+5/7) Accurately ripped
04 [ee1d2b13|7efc98f3] (2+4/6) Accurately ripped
05 99b5494|3b73845d (2+4/6) Accurately ripped
06 [48cbd4ae|18894ec3] (2+4/6) Accurately ripped
07 [f12b300d|312c8eb9] (2+5/7) Accurately ripped
08 [c0affd2b|a579a9a0] (2+4/6) Accurately ripped
09 [a4ed55ac|1c47a924] (2+5/7) Accurately ripped
10 [16539ea7|ac05425a] (2+4/6) Accurately ripped
11 [5cd1b376|1ad93cc5] (2+4/6) Accurately ripped
12 ba4707d|e039f48a (2+5/7) Accurately ripped
13 [c352a618|4742eb1e] (2+4/6) Accurately ripped
14 [6a58b18b|832d7e66] (2+5/7) Accurately ripped
15 [cd0b3ebb|f9ab2e47] (2+5/7) Accurately ripped
16 [5c870176|c6e51a06] (2+5/7) Accurately ripped
17 [261c28ed|07b758df] (2+5/7) Accurately ripped
18 [6e53b0e6|94fd1903] (2+4/6) Accurately ripped
19 [abfdb8e0|d2046d9d] (2+5/7) Accurately ripped
20 [4cce804f|be9cb4c4] (2+4/6) Accurately ripped
21 [c96da1fe|f9869f85] (2+5/7) Accurately ripped
22 dbe8eb9|24c4144a (2+4/6) Accurately ripped

Track Peak [ CRC32 ] [W/O NULL] [ LOG ]
-- 100,0 [24A0774E] [7C3BFB10] CRC32
01 99,7 [882F880F] [8204293F]
02 98,4 [0034318B] [2E58EB42]
03 100,0 [9B6286A8] [9F5E7E20]
04 98,4 [30FF30B7] [98938A44]
05 99,0 [D5929EBE] [7E0DD8F1]
06 98,4 [12571322] [EDADFE07]
07 98,4 [9AF0B011] [3DF560A6]
08 99,5 [FD5AA477] [3A2CDEF3]
09 98,9 [FB579422] [51954FD2]
10 99,4 CDF5564 [0E2274B9]
11 98,4 0C464D7 [55409EF8]
12 98,6 [106A8B0A] [F08ADCD2]
13 98,7 [8368E1E0] [46908229]
14 99,3 [9CCC68CC] [5057FC3B]
15 99,0 [0F192E6D] [4544A760]
16 98,4 [8541910C] 4169A55
17 99,7 [8FEF4A03] 7123A5F
18 98,3 [AAEC0AC3] [F0CE9EF4]
19 98,4 [835DB835] [D236DEC5]
20 99,1 [98390CBC] [20E2A5AB]
21 98,6 [3AECFFE3] [9673189C]
22 99,1 [4E6D4C4F] [FF686CE3]

T. Rex - The Singles As & Bs (2002)

Track List CD2:

01. Cadillac [03:52]
02. Baby Strange [03:04]
03. Thunderwing [03:46]
04. Lady [02:13]
05. Jitterbug Love [02:56]
06. Sunken Rags [02:53]
07. Born To Boogie [02:18]
08. Free Angel [02:14]
09. Midnight [02:48]
10. Sitting Here [02:20]
11. Satisfaction Pony [02:50]
12. Mad Donna [02:17]
13. Liquid Gang [03:18]
14. Explosive Mouth [02:26]
15. Venus Loon [03:02]
16. Space Boss [02:47]
17. Chrome Sitar [03:15]
18. Do You Wanna Dance [02:16]
19. Dock Of The Bay [02:23]
20. Solid Baby [02:36]
21. Baby Boomerang [02:18]
22. Life's An Elevator [02:25]
23. City Port [02:42]
24. All Alone [02:50]
25. Groove A Little [03:25]
26. Tame My Tiger [02:31]
27. Ride My Wheels [02:27]
28. Jason B. Sad [03:21]

Exact Audio Copy V1.0 beta 4 from 7. December 2014

Отчёт EAC об извлечении, выполненном 30. июня 2015, 15:46

T. Rex / The Singles As & Bs

Дисковод: ASUS DRW-24F1ST a Adapter: 1 ID: 0

Режим чтения : Достоверность
Использование точного потока : Да
Отключение кэша аудио : Да
Использование указателей C2 : Нет

Коррекция смещения при чтении : 6
Способность читать области Lead-in и Lead-out : Нет
Заполнение пропущенных сэмплов тишиной : Да
Удаление блоков с тишиной в начале и конце : Нет
При вычислениях CRC использовались нулевые сэмплы : Да
Интерфейс : Встроенный Win32-интерфейс для Win NT/2000

Выходной формат : Пользовательский кодировщик
Выбранный битрейт : 128 kBit/s
Качество : Высокий
Добавление ID3-тега : Нет
Утилита сжатия : C:\Program Files\Exact Audio Copy\Flac\flac.exe
Дополнительные параметры : -V -8 -T "Date=%year%" -T "Genre=%genre%" %source%

TOC извлечённого CD Трек | Старт | Длительность | Начальный сектор | Конечный сектор

1 | 0:00.00 | 3:51.54 | 0 | 17378
2 | 3:51.54 | 3:03.29 | 17379 | 31132
3 | 6:55.08 | 3:45.62 | 31133 | 48069
4 | 10:40.70 | 2:12.62 | 48070 | 58031
5 | 12:53.57 | 2:55.07 | 58032 | 71163
6 | 15:48.64 | 2:52.14 | 71164 | 84077
7 | 18:41.03 | 2:17.23 | 84078 | 94375
8 | 20:58.26 | 2:13.74 | 94376 | 104424
9 | 23:12.25 | 2:47.46 | 104425 | 116995
10 | 25:59.71 | 2:19.63 | 116996 | 127483
11 | 28:19.59 | 2:49.21 | 127484 | 140179
12 | 31:09.05 | 2:16.25 | 140180 | 150404
13 | 33:25.30 | 3:17.45 | 150405 | 165224
14 | 36:43.00 | 2:25.72 | 165225 | 176171
15 | 39:08.72 | 3:01.07 | 176172 | 189753
16 | 42:10.04 | 2:46.37 | 189754 | 202240
17 | 44:56.41 | 3:14.42 | 202241 | 216832
18 | 48:11.08 | 2:15.01 | 216833 | 226958
19 | 50:26.09 | 2:22.09 | 226959 | 237617
20 | 52:48.18 | 2:35.50 | 237618 | 249292
21 | 55:23.68 | 2:17.05 | 249293 | 259572
22 | 57:40.73 | 2:24.57 | 259573 | 270429
23 | 60:05.55 | 2:41.14 | 270430 | 282518
24 | 62:46.69 | 2:49.25 | 282519 | 295218
25 | 65:36.19 | 3:24.60 | 295219 | 310578
26 | 69:01.04 | 2:30.46 | 310579 | 321874
27 | 71:31.50 | 2:26.35 | 321875 | 332859
28 | 73:58.10 | 3:20.27 | 332860 | 347886

Характеристики диапазона извлечения и сообщения об ошибках

Выбранный диапазон Имя файла C:\Users\Erik\Desktop\T. Rex - The Singles As & Bs(Cd2).wav Пиковый уровень 100.0 %
Скорость извлечения 3.4 X
Качество диапазона 100.0 %
CRC теста 72A9693C
CRC копии 72A9693C
Копирование... OK

Ошибок не произошло


AccurateRip: сводка

Трек 1 : извлечено точно (доверие 4) [284DD6AF] (AR v2)
Трек 2 : извлечено точно (доверие 5) [CBB62850] (AR v2)
Трек 3 : извлечено точно (доверие 5) [9EC27BD5] (AR v2)
Трек 4 : извлечено точно (доверие 5) [CF4A1F57] (AR v2)
Трек 5 : извлечено точно (доверие 5) [FC0F7E61] (AR v2)
Трек 6 : извлечено точно (доверие 5) D12D22D (AR v2)
Трек 7 : извлечено точно (доверие 5) [71A583BE] (AR v2)
Трек 8 : извлечено точно (доверие 5) [E47E3B23] (AR v2)
Трек 9 : извлечено точно (доверие 5) [8C88565D] (AR v2)
Трек 10 : извлечено точно (доверие 5) [9DD46B99] (AR v2)
Трек 11 : извлечено точно (доверие 5) [8FA0E209] (AR v2)
Трек 12 : извлечено точно (доверие 5) [4FBD720A] (AR v2)
Трек 13 : извлечено точно (доверие 4) [66FA8A2A] (AR v2)
Трек 14 : извлечено точно (доверие 5) 394CE4E (AR v2)
Трек 15 : извлечено точно (доверие 5) [03F4FB53] (AR v2)
Трек 16 : извлечено точно (доверие 5) [6377D35D] (AR v2)
Трек 17 : извлечено точно (доверие 5) [6CCC127B] (AR v2)
Трек 18 : извлечено точно (доверие 5) [8E544EF3] (AR v2)
Трек 19 : извлечено точно (доверие 4) [266CDDA4] (AR v2)
Трек 20 : извлечено точно (доверие 5) [1DDEA947] (AR v2)
Трек 21 : извлечено точно (доверие 5) [D33E86F5] (AR v2)
Трек 22 : извлечено точно (доверие 5) [CBEA5AD1] (AR v2)
Трек 23 : извлечено точно (доверие 5) [4F2691EE] (AR v2)
Трек 24 : извлечено точно (доверие 5) [71AA281F] (AR v2)
Трек 25 : извлечено точно (доверие 4) [590A5491] (AR v2)
Трек 26 : извлечено точно (доверие 5) [57C7A1EC] (AR v2)
Трек 27 : извлечено точно (доверие 5) [61E0C734] (AR v2)
Трек 28 : извлечено точно (доверие 6) 79AE12C (AR v2)

Все треки извлечены точно

Конец отчёта

- CUETools DB Plugin V2.1.4

[CTDB TOCID: vdjw4eWxpOzx2cBMmg5QH6X__RA-] found
Submit result: vdjw4eWxpOzx2cBMmg5QH6X__RA- has been confirmed
Track | CTDB Status
1 | (5/5) Accurately ripped
2 | (5/5) Accurately ripped
3 | (5/5) Accurately ripped
4 | (5/5) Accurately ripped
5 | (5/5) Accurately ripped
6 | (5/5) Accurately ripped
7 | (5/5) Accurately ripped
8 | (5/5) Accurately ripped
9 | (5/5) Accurately ripped
10 | (5/5) Accurately ripped
11 | (5/5) Accurately ripped
12 | (5/5) Accurately ripped
13 | (4/5) Accurately ripped
14 | (5/5) Accurately ripped
15 | (5/5) Accurately ripped
16 | (5/5) Accurately ripped
17 | (5/5) Accurately ripped
18 | (5/5) Accurately ripped
19 | (4/5) Accurately ripped
20 | (5/5) Accurately ripped
21 | (5/5) Accurately ripped
22 | (5/5) Accurately ripped
23 | (5/5) Accurately ripped
24 | (5/5) Accurately ripped
25 | (4/5) Accurately ripped
26 | (5/5) Accurately ripped
27 | (5/5) Accurately ripped
28 | (5/5) Accurately ripped

foobar2000 1.2.6 / Dynamic Range Meter 1.1.1
log date: 2015-07-01 02:35:19

Analyzed: T. Rex / The Singles As & Bs

DR Peak RMS Duration Track

DR8 -0.13 dB -8.87 dB 3:52 01-Cadillac
DR8 -0.07 dB -9.47 dB 3:03 02-Baby Strange
DR7 -0.12 dB -8.59 dB 3:46 03-Thunderwing
DR9 -0.14 dB -10.23 dB 2:13 04-Lady
DR8 0.00 dB -9.56 dB 2:55 05-Jitterbug Love
DR8 -0.14 dB -9.07 dB 2:52 06-Sunken Rags
DR9 -0.13 dB -9.82 dB 2:17 07-Born To Boogie
DR7 -0.14 dB -8.68 dB 2:14 08-Free Angel
DR8 -0.20 dB -9.49 dB 2:48 09-Midnight
DR8 -0.03 dB -9.04 dB 2:20 10-Sitting Here
DR8 -0.07 dB -9.19 dB 2:49 11-Satisfaction Pony
DR8 -0.14 dB -8.85 dB 2:16 12-Mad Donna
DR7 -0.14 dB -8.41 dB 3:18 13-Liquid Gang
DR8 -0.14 dB -9.85 dB 2:26 14-Explosive Mouth
DR7 -0.14 dB -8.43 dB 3:01 15-Venus Loon
DR7 -0.01 dB -8.59 dB 2:46 16-Space Boss
DR7 -0.12 dB -7.94 dB 3:15 17-Chrome Sitar
DR8 -0.14 dB -9.01 dB 2:15 18-Do You Wanna Dance
DR8 -0.08 dB -9.37 dB 2:22 19-Dock Of The Bay
DR9 -0.09 dB -10.14 dB 2:36 20-Solid Baby
DR8 -0.08 dB -9.49 dB 2:17 21-Baby Boomerang
DR8 0.00 dB -9.57 dB 2:25 22-Life's An Elevator
DR9 -0.13 dB -10.54 dB 2:41 23-City Port
DR6 -0.09 dB -7.35 dB 2:49 24-All Alone
DR7 0.00 dB -9.15 dB 3:25 25-Groove A Little
DR7 -0.09 dB -8.50 dB 2:31 26-Tame My Tiger
DR7 -0.08 dB -8.91 dB 2:26 27-Ride My Wheels
DR7 -0.14 dB -8.49 dB 3:20 28-Jason B. Sad

Number of tracks: 28
Official DR value: DR8

Samplerate: 44100 Hz
Channels: 2
Bits per sample: 16
Bitrate: 977 kbps
Codec: FLAC

[CUETools log; Date: 01.07.2015 2:35:19; Version: 2.1.5]
[CTDB TOCID: vdjw4eWxpOzx2cBMmg5QH6X__RA-] found.
Track | CTDB Status
1 | (6/6) Accurately ripped
2 | (6/6) Accurately ripped
3 | (6/6) Accurately ripped
4 | (6/6) Accurately ripped
5 | (6/6) Accurately ripped
6 | (6/6) Accurately ripped
7 | (6/6) Accurately ripped
8 | (6/6) Accurately ripped
9 | (6/6) Accurately ripped
10 | (6/6) Accurately ripped
11 | (6/6) Accurately ripped
12 | (6/6) Accurately ripped
13 | (5/6) Accurately ripped
14 | (6/6) Accurately ripped
15 | (6/6) Accurately ripped
16 | (6/6) Accurately ripped
17 | (6/6) Accurately ripped
18 | (6/6) Accurately ripped
19 | (5/6) Accurately ripped
20 | (6/6) Accurately ripped
21 | (6/6) Accurately ripped
22 | (6/6) Accurately ripped
23 | (6/6) Accurately ripped
24 | (6/6) Accurately ripped
25 | (5/6) Accurately ripped
26 | (6/6) Accurately ripped
27 | (6/6) Accurately ripped
28 | (6/6) Accurately ripped
[AccurateRip ID: 004e4237-060bafce-80121e1c] found.
Track [ CRC | V2 ] Status
01 [650159c0|284dd6af] (2+4/6) Accurately ripped
02 1b136ff|cbb62850 (2+5/7) Accurately ripped
03 [a8e32b47|9ec27bd5] (2+5/7) Accurately ripped
04 [f0562478|cf4a1f57] (2+5/7) Accurately ripped
05 [75cf610c|fc0f7e61] (2+5/7) Accurately ripped
06 [d87f2f6d|bd12d22d] (2+5/7) Accurately ripped
07 [6ba96150|71a583be] (2+5/7) Accurately ripped
08 [94b52515|e47e3b23] (2+5/7) Accurately ripped
09 [9f649a11|8c88565d] (2+5/7) Accurately ripped
10 [1076871b|9dd46b99] (2+5/7) Accurately ripped
11 [89023ea6|8fa0e209] (2+5/7) Accurately ripped
12 [52378375|4fbd720a] (2+5/7) Accurately ripped
13 [1160c605|66fa8a2a] (2+4/6) Accurately ripped
14 [eb25c7ee|b394ce4e] (2+5/7) Accurately ripped
15 [f9f64817|03f4fb53] (2+5/7) Accurately ripped
16 [d264a7c6|6377d35d] (2+5/7) Accurately ripped
17 [6d517aea|6ccc127b] (2+5/7) Accurately ripped
18 [00fdb390|8e544ef3] (2+5/7) Accurately ripped
19 [df1c13e5|266cdda4] (2+4/6) Accurately ripped
20 [28d1f6dc|1ddea947] (2+5/7) Accurately ripped
21 [822352c8|d33e86f5] (2+5/7) Accurately ripped
22 [1579eaee|cbea5ad1] (2+5/7) Accurately ripped
23 [45ddbb77|4f2691ee] (2+5/7) Accurately ripped
24 [ad68a83b|71aa281f] (2+5/7) Accurately ripped
25 [8d9a0615|590a5491] (2+4/6) Accurately ripped
26 [61ed0e38|57c7a1ec] (2+5/7) Accurately ripped
27 [e295b3ad|61e0c734] (2+5/7) Accurately ripped
28 [ec16be99|b79ae12c] (2+6/8) Accurately ripped

Track Peak [ CRC32 ] [W/O NULL] [ LOG ]
-- 100,0 [72A9693C] [CAF21EC0] CRC32
01 98,4 [6C16621E] [66E29BAF]
02 99,2 [0B5B9E34] [87498260]
03 98,5 [56B48292] [E2CAA9EA]
04 98,4 [DF99B1C5] [53CCD7BD]
05 100,0 [523B62AC] [21BFE262]
06 98,4 [8B8EEBD4] [F61974EC]
07 98,5 [1CA7FF22] [25BBDF04]
08 98,4 [4BB76214] [76FA0C09]
09 97,7 [8E3C4768] [8DE12D97]
10 99,6 [0E50829D] 0B61E9A
11 99,2 [5F11C9FB] [657AFEBC]
12 98,4 [08E4AA60] 9138382
13 98,4 [1ED2D434] [4CCA3AB2]
14 98,4 [2664F508] [C7940474]
15 98,4 [67034907] [FDE71722]
16 99,8 [4D004ED9] [A45DB519]
17 98,6 [18815407] [E1F77273]
18 98,4 [27820E34] [7BAA8407]
19 99,1 [8E9E9A08] [4B5BFCB6]
20 99,0 [AD158D5D] [3FC04947]
21 99,1 [09D08CCA] [4D960166]
22 100,0 [04E60E75] [724E285A]
23 98,5 [A35673C3] [5E895512]
24 98,9 [85D2C7F6] [4B124170]
25 100,0 [3C705871] [E90B5C71]
26 98,9 [94159319] [A4B62FAD]
27 99,0 [3980D150] A06444D
28 98,4 [E2D937CD] [6CA14E92]

T. Rex - The Singles As & Bs (2002)

All thanks go to ernesto


DOWNLOAD:
Buy Premium To Support Me & Get Resumable Support & Max Speed


Links are Interchangeable - No Password
Direct Download

Tags: Singles

T. Rex - The Singles As & Bs (2002) Download via Hotfile Rapidshare Fileserve Megaupload & FileSonic, T. Rex - The Singles As & Bs (2002) free torrent downloads included crack, serial, keygen.T. Rex - The Singles As & Bs (2002) Fast Download via Rapidshare Hotfile Fileserve Filesonic Megaupload, T. Rex - The Singles As & Bs (2002) Torrents and Emule Download or anything related.
Leave a Comment
Your Name:
E-Mail:
Add Comments:

Enter Code: