Oasis - Standing On The Shoulder Of Giants (2000) Japanese Press

Download Now

Oasis - Standing On The Shoulder Of Giants (2000) Japanese Press

Oasis - Standing On The Shoulder Of Giants (2000) Japanese Press
EAC | FLAC | Image (Cue&Log) ~ 402 Mb (incl 5%) | Mp3 (CBR320) ~ 149 Mb (incl 5%) | Scans included
Genre: Britpop, British Trad Rock, Alternative Rock | Label: Epic/Sony | # ESCA 8118 | Time: 00:51:52

"Standing on the Shoulder of Giants is the fourth studio album by the English rock band Oasis, released on 28 February 2000. The album is the 16th fastest selling album in UK chart history, selling over 310,000 copies in its first week. The album is an effective modern psychedelic record complete with drum loops, samples, electric sitar, mellotron, synthesizers and backward guitars, resulting in an album more experimental with electronica and heavy psychedelic rock influences. Songs such as "Go Let It Out", the Indian-influenced "Who Feels Love?", and the progressive "Gas Panic!" were a departure from the band's earlier style."

"Since Noel Gallagher plays most of the parts on the album, Standing on the Shoulder of Giants isn't really the debut of the new, post-Guigsy/Bonehead lineup, but it is clearly the beginning of Oasis, Mark II. Such a grandiose statement may imply that it's a clear break from Oasis' past, yet that's hardly the case, since many signatures are still in place -- strummed acoustic guitars, big hooks, undeveloped lyrics, familiar rhymes, and a gigantic wall of sound. The arrangements are every bit as detailed as Be Here Now, but they're clearer and better focused, since Oasis' brains weren't clouded with excess and hubris. Ironically, this is also their most overtly druggy, psychedelic release to date -- Gallagher and Mark "Spike" Stent spent endless hours adding Mellotrons, swirling guitars, and vague dancefloor ideas borrowed from the Chemical Brothers and the Charlatans UK, while Noel's melodies invariably follow the minor-key patterns typical of '60s psychedelic pop. Yet for all of its heavy psychedelic influence, Standing on the Shoulder of Giants is really a self-consciously mature departure from the group's usual ebullience, a deliberately mellow, midtempo album spiked with hints of big beat and electronica to prove that they're with it. This may result in the most cohesive Oasis record since Definitely Maybe, but that cohesion has come at a price. Few songs are as bracing as Noel's best work from the first three albums; not even the rockers have the giddy rush or alluring sparkle of classic Oasis. Yes, this flows well, but it's the work of a self-consciously older band and it's hard not to miss the hard rock, pure attitude, and gigantic hooks that made the group's reputation in the first place.

Review by Stephen Thomas Erlewine, Allmusic.com
"




Tracklist:

01. Fuckin' In The Bushes (03:18)
02. Go Let It Out! (04:38)
03. Who Feels Love? (05:44)
04. Put Yer Money Where Yer Mouth Is (04:27)
05. Little James (04:15)
06. Gas Panic! (06:08)
07. Where Did It All Go Wrong? (04:26)
08. Sunday Morning Call (05:12)
09. I Can See A Liar (03:12)
10. Roll It Over (06:36)
11. Let's All Make Believe (03:51)


Exact Audio Copy V1.0 beta 3 from 29. August 2011

EAC extraction logfile from 21. December 2013, 22:09

Oasis / Standing On The Shoulder Of Giants (ESCA 8118)

Used drive : ASUS DRW-24F1ST Adapter: 3 ID: 0

Read mode : Secure
Utilize accurate stream : Yes
Defeat audio cache : Yes
Make use of C2 pointers : No

Read offset correction

: 6
Overread into Lead-In and Lead-Out : No
Fill up missing offset samples with silence : Yes
Delete leading and trailing silent blocks : No
Null samples used in CRC calculations : Yes
Used interface
: Native Win32 interface for Win NT & 2000

Used output format : Internal WAV Routines
Sample format : 44.100 Hz; 16 Bit; Stereo

TOC of the extracted CD Track | Start | Length | Start sector | End sector
--1 | 0:00.00 | 3:18.62 | 0 | 14911 2 | 3:18.62 | 4:38.50 | 14912 | 35811 3 | 7:57.37 | 5:44.35 | 35812 | 61646 4 | 13:41.72 | 4:27.10 | 61647 | 81681 5 | 18:09.07 | 4:15.23 | 81682 | 100829 6 | 22:24.30 | 6:08.20 | 100830 | 128449 7 | 28:32.50 | 4:26.60 | 128450 | 148459 8 | 32:59.35 | 5:12.47 | 148460 | 171906 9 | 38:12.07 | 3:12.70 | 171907 | 186376
10 | 41:25.02 | 6:36.03 | 186377 | 216079
11 | 48:01.05 | 3:51.07 | 216080 | 233411

Range status and errors

Selected range Filename D:\Oasis\Oasis - Standing On The Shoulder Of Giants (ESCA 8118).wav Peak level 100.0 %
Extraction speed 7.0 X
Range quality 99.9 %
Test CRC 53A7CFA0
Copy CRC 53A7CFA0
Copy OK

No errors occurred


AccurateRip summary

Track 1 accurately ripped (confidence 10) CF8347E (AR v2)
Track 2 accurately ripped (confidence 10) [72CF9D39] (AR v2)
Track 3 accurately ripped (confidence 10) [28F1A01C] (AR v2)
Track 4 accurately ripped (confidence 10) [8FE61973] (AR v2)
Track 5 accurately ripped (confidence 10) [8089F72C] (AR v2)
Track 6 accurately ripped (confidence 10) [2B5844E3] (AR v2)
Track 7 accurately ripped (confidence 10) [E05DA7AB] (AR v2)
Track 8 accurately ripped (confidence 10) [410ECE77] (AR v2)
Track 9 accurately ripped (confidence 10) [8CA06451] (AR v2)
Track 10 accurately ripped (confidence 10) [4E9869B9] (AR v2)
Track 11 accurately ripped (confidence 10) [CA0A45B2] (AR v2)

All tracks accurately ripped

End of status report

==== Log checksum 9CF128838483B738C45AA46D3A0DC26615123F27A3C05A5C73047EC21A367E5A ====

foobar2000 1.2 / Dynamic Range Meter 1.1.1
log date: 2015-06-30 19:40:52

Analyzed: Oasis / Standing On The Shoulder Of Giants (ESCA 8118)

DR Peak RMS Duration Track

DR9 -0.34 dB -11.33 dB 3:19 01-Fuckin' In The Bushes
DR7 -0.01 dB -8.40 dB 4:39 02-Go Let It Out!
DR6 -0.74 dB -8.33 dB 5:44 03-Who Feels Love?
DR5 0.00 dB -7.18 dB 4:27 04-Put Yer Money Where Yer Mouth Is
DR5 -0.59 dB -9.34 dB 4:15 05-Little James
DR6 0.00 dB -8.52 dB 6:08 06-Gas Panic!
DR6 -0.01 dB -7.63 dB 4:27 07-Where Did It All Go Wrong?
DR4 -1.01 dB -7.77 dB 5:13 08-Sunday Morning Call
DR7 -0.01 dB -7.72 dB 3:13 09-I Can See A Liar
DR6 -0.01 dB -8.52 dB 6:36 10-Roll It Over
DR5 -0.01 dB -8.19 dB 3:51 11-Let's All Make Believe

Number of tracks: 11
Official DR value: DR6

Samplerate: 44100 Hz
Channels: 2
Bits per sample: 16
Bitrate: 961 kbps
Codec: FLAC

Oasis - Standing On The Shoulder Of Giants (2000) Japanese Press

Oasis - Standing On The Shoulder Of Giants (2000) Japanese Press
Password: designol


DOWNLOAD LINKS
Buy Premium From My Links To Get Resumable Support & Max Speed & To Support Me


Links are Interchangeable - No Password - Single Extraction
Direct Download

Tags: Standing, Shoulder, Giants, Japanese

Oasis - Standing On The Shoulder Of Giants (2000) Japanese Press Download via Hotfile Rapidshare Fileserve Megaupload & FileSonic, Oasis - Standing On The Shoulder Of Giants (2000) Japanese Press free torrent downloads included crack, serial, keygen.Oasis - Standing On The Shoulder Of Giants (2000) Japanese Press Fast Download via Rapidshare Hotfile Fileserve Filesonic Megaupload, Oasis - Standing On The Shoulder Of Giants (2000) Japanese Press Torrents and Emule Download or anything related.
Leave a Comment
Your Name:
E-Mail:
Add Comments:

Enter Code: