Dino Saluzzi - Imagenes (2015) {ECM 2379}

Download Now

Dino Saluzzi - Imagenes (2015) {ECM 2379}

Dino Saluzzi - Imagenes (2015) {ECM 2379}
EAC 1.0b3 | FLAC tracks level 8 | Cue+Log+M3U | Full Scans 300dpi | 357MB + 5% Recovery
Genre: Classical

"Dino Saluzzi can still surprise us. Who knew that the master of the bandoneon had, for decades, been stockpiling compositions for other instruments? This album of pieces for piano features music written between 1960 and 2002, variously conceived in Salta, Buenos Aires, Stuttgart and on the road. It is music of great diversity, both distinct from and connected to Dino's work as storytelling, improvising bandoneonist."

Track List
01. Imágenes 10:08
02. Los Recuerdos 7:23
03. Montañas 9:16
04. Romance 3:12
05. La Casa 13 5:45
06. Claveles 6:19
07. Moto Perpetuo 1:03
08. Media Noche 5:50
09. Vals Para Verenna 3:34
10. Donde Nací 6:09

Horacio Lavandera - piano

Produced by Manfred Eicher

Exact Audio Copy V1.0 beta 3 from 29. August 2011

EAC extraction logfile from 9. June 2015, 0:40

Dino Saluzzi / Imagenes - Music For Piano [ECM New Series 2379]

Used drive : PLEXTOR DVDR PX-891SAW Adapter: 2 ID: 1

Read mode : Secure
Utilize accurate stream : Yes
Defeat audio cache : Yes
Make use of C2 pointers : No

Read offset correction

: 48
Overread into Lead-In and Lead-Out : No
Fill up missing offset samples with silence : Yes
Delete leading and trailing silent blocks : No
Null samples used in CRC calculations : Yes
Used interface
: Native Win32 interface for Win NT & 2000
Gap handling
: Appended to previous track

Used output format : User Defined Encoder
Selected bitrate : 128 kBit/s
Quality : High
Add ID3 tag : No
Command line compressor : C:\Program Files (x86)\Exact Audio Copy\FLAC\FLAC.EXE
Additional command line options : -8 -V -T "ARTIST=%artist%" -T "TITLE=%title%" -T "ALBUM=%albumtitle%" -T "DATE=%year%" -T "TRACKNUMBER=%tracknr%" -T "TOTALTRACKS=%numtracks%" -T "GENRE=%genre%" -T "ALBUMARTIST=%albumartist%" -T "ALBUM ARTIST=%albumartist%" -T "COMMENT=EAC Secure Mode, Test & Copy, AccurateRip, FLAC -8" %source%

TOC of the extracted CD Track | Start | Length | Start sector | End sector
--1 | 0:00.00 | 10:10.62 | 0 | 45811 2 | 10:10.62 | 7:26.14 | 45812 | 79275 3 | 17:37.01 | 9:18.23 | 79276 | 121148 4 | 26:55.24 | 3:14.40 | 121149 | 135738 5 | 30:09.64 | 5:47.17 | 135739 | 161780 6 | 35:57.06 | 6:21.58 | 161781 | 190413 7 | 42:18.64 | 1:06.53 | 190414 | 195416 8 | 43:25.42 | 5:52.65 | 195417 | 221881 9 | 49:18.32 | 3:37.62 | 221882 | 238218
10 | 52:56.19 | 6:09.56 | 238219 | 265949

Track 1 Filename G:\Flac Rips\01 - Imagenes.wav Pre-gap length 0:00:02.00 Peak level 98.2 %
Extraction speed 2.9 X
Track quality 100.0 %
Test CRC 778CCBAA
Copy CRC 778CCBAA
Track not present in AccurateRip database
Copy OK

Track 2 Filename G:\Flac Rips\02 - Los Recuerdos.wav Pre-gap length 0:00:02.09 Peak level 98.8 %
Extraction speed 3.1 X
Track quality 99.9 %
Test CRC 1D5C61D6
Copy CRC 1D5C61D6
Track not present in AccurateRip database
Copy OK

Track 3 Filename G:\Flac Rips\03 - Montanas.wav Pre-gap length 0:00:02.44 Peak level 98.9 %
Extraction speed 3.8 X
Track quality 100.0 %
Test CRC 458993FE
Copy CRC 458993FE
Track not present in AccurateRip database
Copy OK

Track 4 Filename G:\Flac Rips\04 - Romance.wav Pre-gap length 0:00:02.07 Peak level 52.9 %
Extraction speed 3.2 X
Track quality 99.9 %
Test CRC AAA819F3
Copy CRC AAA819F3
Track not present in AccurateRip database
Copy OK

Track 5 Filename G:\Flac Rips\05 - La Casa 13.wav Pre-gap length 0:00:02.04 Peak level 94.0 %
Extraction speed 3.8 X
Track quality 99.9 %
Test CRC 0749B37B
Copy CRC 0749B37B
Track not present in AccurateRip database
Copy OK

Track 6 Filename G:\Flac Rips\06 - Claveles.wav Pre-gap length 0:00:02.01 Peak level 52.6 %
Extraction speed 4.1 X
Track quality 99.9 %
Test CRC AFB6A62E
Copy CRC AFB6A62E
Track not present in AccurateRip database
Copy OK

Track 7 Filename G:\Flac Rips\07 - Moto Perpetuo.wav Pre-gap length 0:00:02.09 Peak level 74.3 %
Extraction speed 2.4 X
Track quality 99.8 %
Test CRC 53F02DCF
Copy CRC 53F02DCF
Track not present in AccurateRip database
Copy OK

Track 8 Filename G:\Flac Rips\08 - Media Noche.wav Pre-gap length 0:00:02.55 Peak level 62.4 %
Extraction speed 4.3 X
Track quality 99.9 %
Test CRC B10B65C4
Copy CRC B10B65C4
Track not present in AccurateRip database
Copy OK

Track 9 Filename G:\Flac Rips\09 - Vals Para Verenna.wav Pre-gap length 0:00:02.02 Peak level 47.6 %
Extraction speed 4.6 X
Track quality 100.0 %
Test CRC C2722E41
Copy CRC C2722E41
Track not present in AccurateRip database
Copy OK

Track 10 Filename G:\Flac Rips\10 - Donde Naci.wav Pre-gap length 0:00:03.22 Peak level 71.1 %
Extraction speed 5.1 X
Track quality 100.0 %
Test CRC 0EE29019
Copy CRC 0EE29019
Track not present in AccurateRip database
Copy OK

None of the tracks are present in the AccurateRip database

No errors occurred

End of status report

==== Log checksum FDA9227E1F29C029044CBFBA4790248F9FA5680243045339A1F24FE8A55F91C7 ====

Analyzed: Dino Saluzzi / Imagenes - Music For Piano [ECM New Series 2379]

DR Peak RMS Duration Track

DR14 -0.15 dB -20.02 dB 10:11 01-Imagenes
DR14 -0.10 dB -22.42 dB 7:26 02-Los Recuerdos
DR15 -0.09 dB -22.54 dB 9:18 03-Montanas
DR11 -5.53 dB -23.18 dB 3:15 04-Romance
DR13 -0.53 dB -20.46 dB 5:47 05-La Casa 13
DR12 -5.57 dB -22.87 dB 6:22 06-Claveles
DR11 -2.57 dB -17.19 dB 1:07 07-Moto Perpetuo
DR12 -4.09 dB -23.09 dB 5:53 08-Media Noche
DR14 -6.43 dB -25.65 dB 3:38 09-Vals Para Verenna
DR13 -2.95 dB -21.87 dB 6:10 10-Donde Naci

Number of tracks: 10
Official DR value: DR13

Samplerate: 44100 Hz
Channels: 2
Bits per sample: 16
Bitrate: 406 kbps
Codec: FLAC

Dino Saluzzi - Imagenes (2015) {ECM 2379}

Dino Saluzzi - Imagenes (2015) {ECM 2379}

Dino Saluzzi - Imagenes (2015) {ECM 2379}



DOWNLOAD LINKS
Buy Premium From My Links To Get Resumable Support & Max Speed & To Support Me


Links are Interchangeable - No Password - Single Extraction
Direct Download

Tags: Saluzzi, Imagenes

Dino Saluzzi - Imagenes (2015) {ECM 2379} Download via Hotfile Rapidshare Fileserve Megaupload & FileSonic, Dino Saluzzi - Imagenes (2015) {ECM 2379} free torrent downloads included crack, serial, keygen.Dino Saluzzi - Imagenes (2015) {ECM 2379} Fast Download via Rapidshare Hotfile Fileserve Filesonic Megaupload, Dino Saluzzi - Imagenes (2015) {ECM 2379} Torrents and Emule Download or anything related.
Leave a Comment
Your Name:
E-Mail:
Add Comments:

Enter Code: